BitTorrentTracker PerecTracker.org
BitTorrentTracker PerecTracker.org
    
Регистрация  ·  Вход
 
 · 
Забыли пароль?

  • Тролли: Лучшие друзья на всю жизнь / Trollz: Best Friends for Life (Карен Хайден / Karen Hyden) [2005, мультфильм, семейный, DVDRip] AVO (Гранкин)

    Ответить на тему
     
    Автор Сообщение

    rechyn

    Создавать темы 08-Дек-2015 23:09

           

    [Цитировать]

    Тролли: Лучшие друзья на всю жизнь / Trollz: Best Friends for Life-Страна: США
    Жанр: Мультфильм, семейный
    Год выпуска: 2005
    Продолжительность: 01:06:36
    Перевод: Авторский (одноголосый закадровый) - Евгений Гранкин
    Русские субтитры: Нет-Режиссёр: Карен Хайден / Karen Hyden.-Описание: Знакомьтесь: Аметист, Рубин, Топаз, Оникс и Сапфир - пять неразлучных подружек, настоящих волшебниц. И хотя все они тролли, это не мешает им жить обычной жизнью: общаться, ходить в школу, встречаться с друзьями, посещать парикмахерскую и кафе. А свои магические силы они используют, чтобы сделать эту жизнь более захватывающей. Но однажды Аметисту приснился сон, в котором подруги перестали с ней дружить, и с этого начались удивительные приключения.-Благодарности:
    multmir за предоставление оригинального DVD диска;
    Lexa1988-L1 за предоставление русской озвучки;
    grandmajor за своевременную помощь в переводе с английского;
    Bobropandavar реавторинг DVD-Релиз: -Качество: DVDRip
    Формат: AVI
    Видео:704x528 (1.33:1), 25 fps, XviD build 65 ~1423 kbps avg, 0.15 bit/pixel
    Аудио : 48 kHz, MPEG Layer 3, 2 ch, ~128.00 kbps avg
    Субтитры: Отсутствуют-

    MI

    Format : AVIFormat/Info : Audio Video InterleaveFile size : 743 MiBDuration : 1h 6mnOverall bit rate : 1 562 KbpsWriting application : VirtualDubMod 1.5.10.3 | www.virtualdub-fr.org || (build 2550/release)Writing library : VirtualDubMod build 2550/release
    VideoID : 0Format : MPEG-4 VisualFormat profile : Advanced Simple@L5Format settings, BVOP : 2Format settings, QPel : NoFormat settings, GMC : No warppointsFormat settings, Matrix : CustomCodec ID : XVIDCodec ID/Hint : XviDDuration : 1h 6mnBit rate : 1 424 KbpsWidth : 704 pixelsHeight : 528 pixelsDisplay aspect ratio : 4:3Frame rate : 25.000 fpsColor space : YUVChroma subsampling : 4:2:0Bit depth : 8 bitsScan type : ProgressiveCompression mode : LossyBits/(Pixel*Frame) : 0.153Stream size : 677 MiB (91%)Writing library : XviD 65
    AudioID : 1Format : MPEG AudioFormat version : Version 1Format profile : Layer 3Codec ID : 55Codec ID/Hint : MP3Duration : 1h 6mnBit rate mode : ConstantBit rate : 128 KbpsChannel count : 2 channelsSampling rate : 48.0 KHzCompression mode : LossyStream size : 60.9 MiB (8%)Alignment : Aligned on interleavesInterleave, duration : 40 ms (1.00 video frame)Interleave, preload duration : 504 msWriting library : LAME3.99rEncoding settings : -m s -V 4 -q 2 -lowpass 17 -b 128
    Скачать .torrent

    Скачать торрент-файл бесплатно и на максимальной скорости!

    Как скачивать? · Что такое торрент? · Рейтинг и ограничения

    !ВНИМАНИЕ!
    Сайт не распространяет и не хранит электронные версии произведений, а занимается лишь лишь предоставлением доступа к создаваемому пользователями каталогу ссылок на торрент-файлы, которые содержат только списки хеш-сумм, убедительная просьба с жалобами обращаться напрямую к пользователю. Файлы для обмена на трекере предоставлены пользователями сайта, и администрация не несёт ответственности за их содержание. Просьба не заливать файлы, защищенные авторскими правами, а также файлы нелегального содержания!


    _________________
    [Профиль] [ЛС]
    Показать сообщения:    
    Ответить на тему

    Текущее время: Сегодня, в 06:56

    Часовой пояс: GMT + 2



    Вы не можете начинать темы
    Вы не можете отвечать на сообщения
    Вы не можете редактировать свои сообщения
    Вы не можете удалять свои сообщения
    Вы не можете голосовать в опросах
    Вы не можете прикреплять файлы к сообщениям
    Вы не можете скачивать файлы