BitTorrentTracker PerecTracker.org
BitTorrentTracker PerecTracker.org
    
Регистрация  ·  Вход
 
 · 
Забыли пароль?

  • Лига справедливости: Парадокс источника конфликта / Justice League: The Flashpoint Paradox (Джей Олива / Jay Oliva) [2013, мультфильм, фантастика, фэнтези, BDRip] 3xMvo + Eng + Sub (2xRus, Eng)

    Ответить на тему
     
    Автор Сообщение

    rechyn

    Создавать темы 08-Дек-2015 23:09

           

    [Цитировать]

    Лига справедливости: Парадокс источника конфликта / Justice League: The Flashpoint Paradox-Страна: США
    Жанр: мультфильм, фантастика, фэнтези, боевик, приключения
    Год выпуска: 2013
    Продолжительность: 01:21:14
    Перевод 1: Любительский (Многоголосый закадровый) - Arasi Project
    Перевод 2: Любительский (Многоголосый закадровый) - SkyeFilmTV
    Перевод 3: Любительский (Многоголосый закадровый) - DuBDrag Project
    Субтитры: Есть-Режиссер: Джей Олива / Jay Oliva-Описание: Миллионы людей в нашем мире ссорятся по тем или иным причинам. Кто-то умеет мирно разрешать конфликты, кто-то же привык решать все проблемы «на кулаках». Но мало кто верит в существование истинной справедливости, однако команда супергероев всегда готова подтвердить, что справедливость все же, существует. Отважные спасатели бросаются на помощь к тем, кто пострадал от незаконных или нечестных действий злодеев, они очищают мир от негодяев, делая его более добрым и светлым.-Рейтинг:

    MPAA: - Детям до 13 лет просмотр не желателен-Бюджет: $3 500 000
    Мировая премьера: 30 июля 2013-Релиз: -Семпл-Качество: BDRip [Justice League The Flashpoint Paradox.2013.BDRemux 1080p.mkv]
    Формат: AVI
    Видео: 720x400 (1.80:1), 23.976 fps, XviD build 65 ~2102 kbps avg, 0.30 bit/pixel
    Аудио: 48 kHz, AC3 Dolby Digital, 3/2 (L,C,R,l,r) + LFE ch, ~448 kbps - Arasi Project
    Аудио 2: 48 kHz, AC3 Dolby Digital, 3/2 (L,C,R,l,r) + LFE ch, ~448 kbps - SkyeFilmTV - (Отдельным файлом)
    Аудио 3: 48 kHz, AC3 Dolby Digital, 3/2 (L,C,R,l,r) + LFE ch, ~448 kbps - DuBDrag Project - (Отдельным файлом)
    Аудио 4: 48 kHz, AC3 Dolby Digital, 3/2 (L,C,R,l,r) + LFE ch, ~448 kbps - Eng - (Отдельным файлом)
    Субтитры: Русские (voronine (Srt)), Русские (GeekiLeaks(Srt)), Английские (Srt)-

    MI

    Format : AVIFormat/Info : Audio Video InterleaveFile size : 1.45 GiBDuration : 1h 21mnOverall bit rate : 2 560 KbpsWriting application : VirtualDubMod 1.5.10.3 | www.virtualdub-fr.org || (build 2550/release)Writing library : VirtualDubMod build 2550/release
    VideoID : 0Format : MPEG-4 VisualFormat profile : Advanced Simple@L5Format settings, BVOP : 2Format settings, QPel : NoFormat settings, GMC : No warppointsFormat settings, Matrix : CustomCodec ID : XVIDCodec ID/Hint : XviDDuration : 1h 21mnBit rate : 2 103 KbpsWidth : 720 pixelsHeight : 400 pixelsDisplay aspect ratio : 16:9Frame rate : 23.976 fpsColor space : YUVChroma subsampling : 4:2:0Bit depth : 8 bitsScan type : ProgressiveCompression mode : LossyBits/(Pixel*Frame) : 0.304Stream size : 1.19 GiB (82%)Writing library : XviD 65
    AudioID : 1Format : AC-3Format/Info : Audio Coding 3Mode extension : CM (complete main)Format settings, Endianness : BigCodec ID : 2000Duration : 1h 21mnBit rate mode : ConstantBit rate : 448 KbpsChannel(s) : 6 channelsChannel positions : Front: L C R, Side: L R, LFESampling rate : 48.0 KHzBit depth : 16 bitsCompression mode : LossyStream size : 260 MiB (18%)Alignment : Split accross interleavesInterleave, duration : 42 ms (1.00 video frame)Interleave, preload duration : 500 ms
    Все раздачи данного мультфильма
    Скачать .torrent

    Скачать торрент-файл бесплатно и на максимальной скорости!

    Как скачивать? · Что такое торрент? · Рейтинг и ограничения

    !ВНИМАНИЕ!
    Сайт не распространяет и не хранит электронные версии произведений, а занимается лишь лишь предоставлением доступа к создаваемому пользователями каталогу ссылок на торрент-файлы, которые содержат только списки хеш-сумм, убедительная просьба с жалобами обращаться напрямую к пользователю. Файлы для обмена на трекере предоставлены пользователями сайта, и администрация не несёт ответственности за их содержание. Просьба не заливать файлы, защищенные авторскими правами, а также файлы нелегального содержания!


    _________________
    [Профиль] [ЛС]
    Показать сообщения:    
    Ответить на тему

    Текущее время: Сегодня, в 00:14

    Часовой пояс: GMT + 2



    Вы не можете начинать темы
    Вы не можете отвечать на сообщения
    Вы не можете редактировать свои сообщения
    Вы не можете удалять свои сообщения
    Вы не можете голосовать в опросах
    Вы не можете прикреплять файлы к сообщениям
    Вы не можете скачивать файлы