BitTorrentTracker PerecTracker.org
BitTorrentTracker PerecTracker.org
    
Регистрация  ·  Вход
 
 · 
Забыли пароль?

  • Красавица и чудовище / Beauty and the Beast (Гэри Труздейл / Gary Trousdale, Кирк Уайз / Kirk Wise) [1991, США, мультфильм, VHSRip] AVO (Гаврилов)

    Ответить на тему
     
    Автор Сообщение

    rechyn

    Создавать темы 08-Дек-2015 23:09

           

    [Цитировать]

    Красавица и чудовище / Beauty and the Beast, Первая версия-Год выпуска: 1991
    Страна: США
    Жанры: анимациионный фильм, детский, семейный, музыкальный
    Продолжительность: 01:26:09
    Перевод: Авторский (одноголосый) - Андрей Гаврилов
    Русские субтитры: нет
    Режиссёры: Гэри Труздейл / Gary Trousdale и Кирк Уайз / Kirk Wise
    Роли озвучивали: Пейдж О’Хара, Робби Бенсон, Ричард Уайт, Джерри Орбак, Дэвид Огден Стайерз, Анджела Лэнсбери, Брэдли Пирс, Рекс Эверхарт, Джесси Корти, Хэл Смит
    Описание:
    Когда-то жил на свете принц в сверкающем замке.
    Он был избалован, был недобрый и невоспитанный.
    Зимней ночью постучалась в двери его замка старушка-нищенка и предложила ему розу за то, чтобы он пустил её переночевать.
    Принцу она очень не понравилась, он посмеялся над ней и над её подарком и прогнал.
    Но она предупредила его - нельзя судить по внешности, потому что настоящую красоту можно найти в душе.
    И когда принц прогнал ее, старушка обратилась в прекрасную волшебницу.
    Принц просил прощения, но волшебница видела, что в сердце его нет любви, а потому наложила заклятие на него, на замок и окрестности.
    Принц стал Чудовищем и прятался в замке.
    А роза на самом деле была волшебной и должна была цвести до тех пор, пока Чудовищу не исполнится 21 год.
    Если он полюбит кого-нибудь и завоюет любовь какой-нибудь девушки до того как упадет последний лепесток, тогда заклинание будет снято.
    Если нет - то он так и останется чудовищем. Навсегда…

    Качество: VHSRip
    Формат: AVI
    Видео кодек: XviD
    Аудио кодек: AC3
    Видео: 640x480, 25 fps, XviD build 47, 2161 kbps avg, 0.28 bit/pixel
    Аудио: Audio: 48 kHz, AC3 Dolby Digital, 2/0 (L,R) ch (Андрей Гаврилов), ~192.00 kbps avg
    Примечание:
    Здесь представлена самая первая версия фильма, которая не выходила в современных форматах.
    Её и переводил Андрей Гаврилов.
    Уже в первом издании на DVD, 2002 года, были сделаны изменения: другой монтаж, другая рисовка, добавления, другой цвет.
    В издании на DVD, в 2010 году, снова произошли изменения.
    А при издании на BD фильм подвергся новым изменениям.

    скрытый текст

    Фильм оцифрован с видеокассеты на видеомагнитофоне Hi-Fi Stereo (6 Heads).

    MediaInfo:

    GeneralComplete name : Beauty_and_the_Beast_The_First_VersionFormat : AVIFormat/Info : Audio Video InterleaveFile size : 1.42 GiBDuration : 1h 26mnOverall bit rate : 2 364 KbpsWriting application : VirtualDubMod 1.5.10.2 (build 2540/release)Writing library : VirtualDubMod build 2540/release
    VideoID : 0Format : MPEG-4 VisualFormat profile : Advanced Simple@L5Format settings, BVOP : 1Format settings, QPel : NoFormat settings, GMC : No warppointsFormat settings, Matrix : Default (H.263)Codec ID : XVIDCodec ID/Hint : XviDDuration : 1h 26mnBit rate : 2 162 KbpsWidth : 640 pixelsHeight : 480 pixelsDisplay aspect ratio : 4:3Frame rate : 25.000 fpsColor space : YUVChroma subsampling : 4:2:0Bit depth : 8 bitsScan type : ProgressiveCompression mode : LossyBits/(Pixel*Frame) : 0.281Stream size : 1.30 GiB (91%)Writing library : XviD 1.2.0.dev47 (UTC 2006-11-01)
    AudioID : 1Format : AC-3Format/Info : Audio Coding 3Mode extension : CM (complete main)Codec ID : 2000Duration : 1h 26mnBit rate mode : ConstantBit rate : 192 KbpsChannel(s) : 2 channelsChannel positions : Front: L RSampling rate : 48.0 KHzBit depth : 16 bitsCompression mode : LossyStream size : 118 MiB (8%)Alignment : Split accross interleavesInterleave, duration : 40 ms (1.00 video frame)Interleave, preload duration : 500 ms

    Скриншоты


    Помните про кнопочку "Спасибо"
    Приятного просмотра!
    © Синта Рурони, 2014.
    © 緋村猫, 2014.
    Скачать .torrent

    Скачать торрент-файл бесплатно и на максимальной скорости!

    Как скачивать? · Что такое торрент? · Рейтинг и ограничения

    !ВНИМАНИЕ!
    Сайт не распространяет и не хранит электронные версии произведений, а занимается лишь лишь предоставлением доступа к создаваемому пользователями каталогу ссылок на торрент-файлы, которые содержат только списки хеш-сумм, убедительная просьба с жалобами обращаться напрямую к пользователю. Файлы для обмена на трекере предоставлены пользователями сайта, и администрация не несёт ответственности за их содержание. Просьба не заливать файлы, защищенные авторскими правами, а также файлы нелегального содержания!


    _________________
    [Профиль] [ЛС]
    Показать сообщения:    
    Ответить на тему

    Текущее время: Сегодня, в 14:22

    Часовой пояс: GMT + 2



    Вы не можете начинать темы
    Вы не можете отвечать на сообщения
    Вы не можете редактировать свои сообщения
    Вы не можете удалять свои сообщения
    Вы не можете голосовать в опросах
    Вы не можете прикреплять файлы к сообщениям
    Вы не можете скачивать файлы