BitTorrentTracker PerecTracker.org
BitTorrentTracker PerecTracker.org
    
Регистрация  ·  Вход
 
 · 
Забыли пароль?

  • Дом злодеев. Мышиный дом / Mickey\'s House of Villains (Джэми Митчелл / Jamie Mitchell, Тони Крэйг / Tony Craig, Роберт Ганнавей / Robert Gannaway) [2001, мультфильм, комедия, семейный, DVDRip] Dub

    Ответить на тему
     
    Автор Сообщение

    rechyn

    Создавать темы 08-Дек-2015 23:08

           

    [Цитировать]

    Дом злодеев. Мышиный дом / Mickey's House of Villains-Страна: США
    Жанр: мультфильм, комедия, семейный
    Год выпуска: 2001
    Продолжительность: 01:08:02
    Перевод: Профессиональный (полное дублирование)
    Русские субтитры: Нет-Режиссер: Джэми Митчелл / Jamie Mitchell, Тони Крэйг / Tony Craig, Роберт Ганнавей / Robert Gannaway-Роли озвучивали: Уэйн Оллвэйн (Mickey Mouse, озвучка), Тони Ансельмо (Donald Duck, Huey, Dewey, Louie, озвучка), Джефф Беннетт (Salesman, (segment 'Mickey's Mechanical House'), озвучка), Сьюзан Блэйксли (Cruella De Vil, озвучка), Кори Бертон (Captain Hook, Chernabog, 'How to' рассказчик, Chief O'Hara, озвучка), Пэт Кэрролл (Ursula, озвучка), Джон Клиз (рассказчик, (segment 'Mickey's Mechanical House'), озвучка), Джим Каммингс (Big Bad Wolf, Kaa, Ed the Hyena, озвучка), Билл Фармер (Goofy, озвучка), Джон Фидлер (Piglet, озвучка), Джонатан Фриман (Jafar, озвучка), Мэтт Фрюэр (Panic, озвучка)-Роли дублировали: Максим Сергеев (Mickey Mouse), Константин Петров (Donald Duck), Снежина Копрова (Huey / Dewey / Louie), Елена Павловская (Cruella De Vil), Валерий Никитенко («How to» рассказчик), Валерий Кухарешин (Captain Hook; Panic; Iago), Алексей Гурьев (Chernabog; Pain), Михаил Вассербаум (Goofy), Станислав Концевич (Jafar; Hades), Сауле Искакова (Daisy Duck; Minnie Mouse), Наталья Данилова (The Fates; Hazel the Witch, (segment 'Trick or Treat'), хроника), Евгений Иванов (Mike)-Описание: Банда негодяев во главе с Джафаром пытается захватить домик Микки Мауса и превратить его в дом злодеев. Но верные друзья Микки - Дональд Дак, Гуффи, Плуто - как всегда рядом и готовы сражаться за торжество справедливости. Остановить и победить злодеев им помогают взаимовыручка, смекалка, чувство юмора и добрые сердца...-Дополнительная информация: Запись перевода "Нева-фильм" с телеканала СТС и его синхронизация с DVD - xfiles.-Рейтинг:
    -Мировая премьера: 15 ноября 2001-Релиз: -Качество: DVDRip
    Формат: AVI
    Видео: 624x480 (1.30:1), 23.976 fps, XviD build 65 ~1392 kbps avg, 0.19 bit/pixel
    Аудио: 48 kHz, MPEG Layer 3, 2 ch, ~128.00 kbps avg
    Субтитры: Отсутствуют-

    MI

    Format : AVIFormat/Info : Audio Video InterleaveFile size : 745 MiBDuration : 1h 8mnOverall bit rate : 1 530 KbpsWriting application : VirtualDubMod 1.5.10.3 | www.virtualdub-fr.org || (build 2550/release)Writing library : VirtualDubMod build 2550/release
    VideoID : 0Format : MPEG-4 VisualFormat profile : Advanced Simple@L5Format settings, BVOP : 2Format settings, QPel : NoFormat settings, GMC : No warppointsFormat settings, Matrix : CustomCodec ID : XVIDCodec ID/Hint : XviDDuration : 1h 8mnBit rate : 1 393 KbpsWidth : 624 pixelsHeight : 480 pixelsDisplay aspect ratio : 4:3Frame rate : 23.976 fpsColor space : YUVChroma subsampling : 4:2:0Bit depth : 8 bitsScan type : ProgressiveCompression mode : LossyBits/(Pixel*Frame) : 0.194Stream size : 678 MiB (91%)Writing library : XviD 65
    AudioID : 1Format : MPEG AudioFormat version : Version 1Format profile : Layer 3Codec ID : 55Codec ID/Hint : MP3Duration : 1h 8mnBit rate mode : ConstantBit rate : 128 KbpsChannel(s) : 2 channelsSampling rate : 48.0 KHzCompression mode : LossyStream size : 62.3 MiB (8%)Alignment : Aligned on interleavesInterleave, duration : 42 ms (1.00 video frame)Interleave, preload duration : 504 msWriting library : LAME3.99rEncoding settings : -m s -V 4 -q 2 -lowpass 17 -b 128
    Все раздачи мультфильма!
    Скачать .torrent

    Скачать торрент-файл бесплатно и на максимальной скорости!

    Как скачивать? · Что такое торрент? · Рейтинг и ограничения

    !ВНИМАНИЕ!
    Сайт не распространяет и не хранит электронные версии произведений, а занимается лишь лишь предоставлением доступа к создаваемому пользователями каталогу ссылок на торрент-файлы, которые содержат только списки хеш-сумм, убедительная просьба с жалобами обращаться напрямую к пользователю. Файлы для обмена на трекере предоставлены пользователями сайта, и администрация не несёт ответственности за их содержание. Просьба не заливать файлы, защищенные авторскими правами, а также файлы нелегального содержания!


    _________________
    [Профиль] [ЛС]
    Показать сообщения:    
    Ответить на тему

    Текущее время: Сегодня, в 06:35

    Часовой пояс: GMT + 2



    Вы не можете начинать темы
    Вы не можете отвечать на сообщения
    Вы не можете редактировать свои сообщения
    Вы не можете удалять свои сообщения
    Вы не можете голосовать в опросах
    Вы не можете прикреплять файлы к сообщениям
    Вы не можете скачивать файлы