BitTorrentTracker PerecTracker.org
BitTorrentTracker PerecTracker.org
    
Регистрация  ·  Вход
 
 · 
Забыли пароль?

  • Винни Пух: Весенние денёчки с малышом Ру / Winnie the Pooh: Springtime with Roo (Сауль Эндрю Блинкофф / Saul Andrew Blinkoff, Эллиот М. Бур / Elliot M. Bour) [2004, мультфильм, комедия, семейный, BDRip] Dub

    Ответить на тему
     
    Автор Сообщение

    rechyn

    Создавать темы 08-Дек-2015 23:08

           

    [Цитировать]

    Винни Пух: Весенние денёчки с малышом Ру / Winnie the Pooh: Springtime with Roo-Страна: США
    Жанр: мультфильм, комедия, семейный
    Год выпуска: 2004
    Продолжительность: 01:05:31
    Перевод: Профессиональный (полное дублирование)
    Субтитры: Нет-Режиссер: Сауль Эндрю Блинкофф / Saul Andrew Blinkoff, Эллиот М. Бур / Elliot M. Bour-Роли озвучивали: Джим Каммингс (Winnie The Pooh, Tigger, озвучка), Кен Сэнсом (Rabbit, озвучка), Джимми Беннетт (Roo, озвучка), Дэвид Огден Стайерз (рассказчик, озвучка), Кэт Сауси (Kanga, озвучка), Джон Фидлер (Piglet, озвучка), Питер Каллен (Eeyore, озвучка)-Роли дублировали: Виктор Костецкий (Tigger), Владимир Баранов (Winnie The Pooh), Георгий Корольчук (Rabbit), Елизавета Захарьева (Roo), Станислав Концевич (рассказчик), Мария Соснякова (Kanga), Андрей Матвеев (Piglet), Дмитрий Лагачев (Eeyore)-Описание: Вот и наступил это замечательный весенний денек! Пчелки жужжат, цветочки распускаются, а Ру, Винни и Тигруля уже готовы к веселью и играм. Но Кролик не хочет никого выпускать на улицу, пока не будет закончена большая сезонная уборка!
    Сможет ли что-то или кто-то повлиять на строгого Кролика? С помощью мудрости и доброты Ру Кролик вскоре понимает, что на свете есть необычные дни и к ним нужно относиться особенно.
    -Рейтинг:

    MPAA: - Нет возрастных ограничений-Мировая премьера: 23 марта 2004
    Релиз на DVD: 3 августа 2009, «CP-Digital»
    Релиз на Blu-ray: 11 ноября 2014, «Уолт Дисней Компани СНГ»-Релиз: -Качество: BDRip [Исходник]
    Формат: AVI
    Видео: 656x368 (1.78:1), 23.976 fps, XviD build 65 ~1451 kbps avg, 0.25 bit/pixel
    Аудио: 48 kHz, MPEG Layer 3, 2 ch, ~128.00 kbps avg
    Субтитры: Отсутствуют-

    MI

    Format : AVIFormat/Info : Audio Video InterleaveFile size : 745 MiBDuration : 1h 5mnOverall bit rate : 1 589 KbpsWriting application : VirtualDubMod 1.5.10.3 | www.virtualdub-fr.org || (build 2550/release)Writing library : VirtualDubMod build 2550/release
    VideoID : 0Format : MPEG-4 VisualFormat profile : Advanced Simple@L5Format settings, BVOP : 2Format settings, QPel : NoFormat settings, GMC : No warppointsFormat settings, Matrix : CustomCodec ID : XVIDCodec ID/Hint : XviDDuration : 1h 5mnBit rate : 1 451 KbpsWidth : 656 pixelsHeight : 368 pixelsDisplay aspect ratio : 16:9Frame rate : 23.976 fpsColor space : YUVChroma subsampling : 4:2:0Bit depth : 8 bitsScan type : ProgressiveCompression mode : LossyBits/(Pixel*Frame) : 0.251Stream size : 680 MiB (91%)Writing library : XviD 65
    AudioID : 1Format : MPEG AudioFormat version : Version 1Format profile : Layer 3Codec ID : 55Codec ID/Hint : MP3Duration : 1h 5mnBit rate mode : ConstantBit rate : 128 KbpsChannel(s) : 2 channelsSampling rate : 48.0 KHzCompression mode : LossyStream size : 60.0 MiB (8%)Alignment : Aligned on interleavesInterleave, duration : 42 ms (1.00 video frame)Interleave, preload duration : 504 msWriting library : LAME3.99rEncoding settings : -m s -V 4 -q 2 -lowpass 17 -b 128
    Все раздачи мультфильма!
    Скачать .torrent

    Скачать торрент-файл бесплатно и на максимальной скорости!

    Как скачивать? · Что такое торрент? · Рейтинг и ограничения

    !ВНИМАНИЕ!
    Сайт не распространяет и не хранит электронные версии произведений, а занимается лишь лишь предоставлением доступа к создаваемому пользователями каталогу ссылок на торрент-файлы, которые содержат только списки хеш-сумм, убедительная просьба с жалобами обращаться напрямую к пользователю. Файлы для обмена на трекере предоставлены пользователями сайта, и администрация не несёт ответственности за их содержание. Просьба не заливать файлы, защищенные авторскими правами, а также файлы нелегального содержания!


    _________________
    [Профиль] [ЛС]
    Показать сообщения:    
    Ответить на тему

    Текущее время: Сегодня, в 21:56

    Часовой пояс: GMT + 2



    Вы не можете начинать темы
    Вы не можете отвечать на сообщения
    Вы не можете редактировать свои сообщения
    Вы не можете удалять свои сообщения
    Вы не можете голосовать в опросах
    Вы не можете прикреплять файлы к сообщениям
    Вы не можете скачивать файлы