BitTorrentTracker PerecTracker.org
BitTorrentTracker PerecTracker.org
    
Регистрация  ·  Вход
 
 · 
Забыли пароль?

  • Несносный Деннис отправляется в круиз / Несносный Деннис против магии Вуду / Dennis the Menace in Cruise Control (Патрик А. Вентура / Patrick A. Ventura) [2002, мультфильм, комедия, приключения, DVDRip] Dub

    Ответить на тему
     
    Автор Сообщение

    rechyn

    Создавать темы 08-Дек-2015 23:08

           

    [Цитировать]

    Несносный Деннис отправляется в круиз / Несносный Деннис против магии Вуду / Dennis the Menace in Cruise Control-Страна: США
    Жанр: мультфильм, комедия, приключения, семейный
    Год выпуска: 2002
    Продолжительность: 01:14:10
    Перевод 1: Профессиональный (полное дублирование) - KidsCo
    Русские субтитры: Нет-Режиссер: Патрик А. Вентура / Patrick A. Ventura-Роли озвучивали: Том Арнольд (Mr. George Wilson, озвучка), Пит Кронкит (Dennis Mitchell, озвучка), Джим Бёрнс (Kraigor, озвучка), Гари Чок (Hector, озвучка), Джинни Илайас (Joey, Margaret, озвучка), Морис ЛаМарш (Henry Mitchell, озвучка), Мэрлин Лайтстоун (Alice Mitchell, Martha Wilson, озвучка), Ричард Ньюман (Jinks, озвучка), Табита Сен-Жермен (Liana, озвучка), Ли Токар (Ruff, озвучка)-Описание: В поисках тишины и покоя сварливый сосед Денниса мистер Уилсон решил отправиться в морской круиз. Но все его мечты разбились о суровую реальность! Деннис и его семейка оказались на борту этого же самого круизного корабля.
    А когда Деннису вздумалось протянуть руку помощи маленькой островной принцессе, которой грозят темные колдовские силы, и наказать двух мошенников, задумавших украсть ее кольцо, всем пришлось окончательно забыть об отдыхе. Потому что с Деннисом и его командой, когда они приступают к делу, не сравнится даже тропический ураган...-Рейтинг:
    -Мировая премьера: 27 октября 2002-Доп. информация Перевод "Екатеринбург-Арт" найден вконтакте, за перевод "KidsCo" спасибо afedrenkv.-Релиз: -Качество: DVDRip
    Формат: AVI
    Видео: 640x480 (1.33:1), 23.976 fps, XviD build 65 ~1265 kbps avg, 0.17 bit/pixel
    Аудио: 48 kHz, MPEG Layer 3, 2 ch, ~128.00 kbps avg - дублированный [KidsCo]
    Субтитры: Отсутствуют-

    MI

    Format : AVIFormat/Info : Audio Video InterleaveFile size : 745 MiBDuration : 1h 14mnOverall bit rate : 1 403 KbpsWriting application : VirtualDubMod 1.5.10.3 | www.virtualdub-fr.org || (build 2550/release)Writing library : VirtualDubMod build 2550/release
    VideoID : 0Format : MPEG-4 VisualFormat profile : Advanced Simple@L5Format settings, BVOP : 2Format settings, QPel : NoFormat settings, GMC : No warppointsFormat settings, Matrix : CustomCodec ID : XVIDCodec ID/Hint : XviDDuration : 1h 14mnBit rate : 1 266 KbpsWidth : 640 pixelsHeight : 480 pixelsDisplay aspect ratio : 4:3Frame rate : 23.976 fpsColor space : YUVChroma subsampling : 4:2:0Bit depth : 8 bitsScan type : ProgressiveCompression mode : LossyBits/(Pixel*Frame) : 0.172Stream size : 672 MiB (90%)Writing library : XviD 65
    AudioID : 1Format : MPEG AudioFormat version : Version 1Format profile : Layer 3Codec ID : 55Codec ID/Hint : MP3Duration : 1h 14mnBit rate mode : ConstantBit rate : 128 KbpsChannel(s) : 2 channelsSampling rate : 48.0 KHzCompression mode : LossyStream size : 67.9 MiB (9%)Alignment : Aligned on interleavesInterleave, duration : 42 ms (1.00 video frame)Interleave, preload duration : 504 msWriting library : LAME3.99rEncoding settings : -m s -V 4 -q 2 -lowpass 17 -b 128
    Все раздачи мультфильма!
    Скачать .torrent

    Скачать торрент-файл бесплатно и на максимальной скорости!

    Как скачивать? · Что такое торрент? · Рейтинг и ограничения

    !ВНИМАНИЕ!
    Сайт не распространяет и не хранит электронные версии произведений, а занимается лишь лишь предоставлением доступа к создаваемому пользователями каталогу ссылок на торрент-файлы, которые содержат только списки хеш-сумм, убедительная просьба с жалобами обращаться напрямую к пользователю. Файлы для обмена на трекере предоставлены пользователями сайта, и администрация не несёт ответственности за их содержание. Просьба не заливать файлы, защищенные авторскими правами, а также файлы нелегального содержания!


    _________________
    [Профиль] [ЛС]
    Показать сообщения:    
    Ответить на тему

    Текущее время: Сегодня, в 22:39

    Часовой пояс: GMT + 2



    Вы не можете начинать темы
    Вы не можете отвечать на сообщения
    Вы не можете редактировать свои сообщения
    Вы не можете удалять свои сообщения
    Вы не можете голосовать в опросах
    Вы не можете прикреплять файлы к сообщениям
    Вы не можете скачивать файлы