BitTorrentTracker PerecTracker.org
BitTorrentTracker PerecTracker.org
    
Регистрация  ·  Вход
 
 · 
Забыли пароль?

  • Большие гонки / Флоклипа Гран - При / Flaklypa Grand Prix / Pinchcliffe Grand Prix (Иво Каприно / Ivo Caprino) [1975, мультфильм, комедия, приключения, BDRip] DVO

    Ответить на тему
     
    Автор Сообщение

    rechyn

    Создавать темы 08-Дек-2015 23:08

           

    [Цитировать]

    Большие гонки / Флоклипа Гран - При / Flåklypa Grand Prix / Pinchcliffe Grand Prix«The Race of the Century ... Dazzling, Exciting, Incredible ... A Full Length Puppet Film!»-Страна: Норвегия
    Жанр: мультфильм, комедия, приключения, семейный, спорт
    Год выпуска: 1975
    Продолжительность: 01:28:05
    Перевод: Профессиональный (двухголосый закадровый)
    Русские субтитры: Нет-Режиссер: Иво Каприно / Ivo Caprino-Роли озвучивали: Венке Фосс (Enkefru Stengelføhn-Glad, озвучка), Пер Теодор Хаген (TV-reporter, озвучка), Harald Heide-Steen Jr. (Emanuel Desperados, озвучка), Лейф Джастер (рассказчик, озвучка), Хенки Кольстад (Speaker, озвучка), Toralv Maurstad (Ludvig, озвучка), Рольф Жюст Нильсен (Ben Redic Fy Fazan, Roger Jurtappen, Ollvar O. Kleppvold, Hallstein Bronskimlet, Jostein Kroksleiven, озвучка), Хэльге Рейсс (Rudolf Blodstrupmoen, озвучка), Фрэнк Роберт (Reodor Felgen, озвучка), Кари Симонсен (Solan, озвучка)--Описание: Когда ремонтник-изобретатель Теодор Римспоук узнаёт, что его бывший помощник Рудольф Гор-Слайми стал чемпионом автомобильных гонок только благодаря машине, построенной на основе изобретения Теодора, то решает восстановить справедливость. С помощью двух надежных ассистентов он создает новый мощный автомобиль и бросает вызов Рудольфу в самом удивительном и захватывающем гоночном соревновании за всю историю мировой анимации!-Рейтинг:

    MPAA: - Нет возрастных ограничений-Мировая премьера: 28 августа 1975-Релиз: -Качество: BDRip
    Формат: AVI
    Видео: 656x368 (1.78:1), 24.000 fps, XviD build 65 ~1045 kbps avg, 0.18 bit/pixel
    Аудио: 48 kHz, MPEG Layer 3, 2 ch, ~128.00 kbps avg
    Субтитры: Отсутствуют-

    MI

    Format : AVIFormat/Info : Audio Video InterleaveFile size : 745 MiBDuration : 1h 28mnOverall bit rate : 1 183 KbpsWriting application : VirtualDubMod 1.5.10.3 | www.virtualdub-fr.org || (build 2550/release)Writing library : VirtualDubMod build 2550/release
    VideoID : 0Format : MPEG-4 VisualFormat profile : Advanced Simple@L5Format settings, BVOP : 2Format settings, QPel : NoFormat settings, GMC : No warppointsFormat settings, Matrix : CustomCodec ID : XVIDCodec ID/Hint : XviDDuration : 1h 28mnBit rate : 1 045 KbpsWidth : 656 pixelsHeight : 368 pixelsDisplay aspect ratio : 16:9Frame rate : 24.000 fpsColor space : YUVChroma subsampling : 4:2:0Bit depth : 8 bitsScan type : ProgressiveCompression mode : LossyBits/(Pixel*Frame) : 0.180Stream size : 659 MiB (88%)Writing library : XviD 65
    AudioID : 1Format : MPEG AudioFormat version : Version 1Format profile : Layer 3Codec ID : 55Codec ID/Hint : MP3Duration : 1h 28mnBit rate mode : ConstantBit rate : 128 KbpsChannel(s) : 2 channelsSampling rate : 48.0 KHzCompression mode : LossyStream size : 80.6 MiB (11%)Alignment : Aligned on interleavesInterleave, duration : 42 ms (1.00 video frame)Interleave, preload duration : 504 msWriting library : LAME3.99rEncoding settings : -m s -V 4 -q 2 -lowpass 17 -b 128
    Все раздачи мультфильма!
    Скачать .torrent

    Скачать торрент-файл бесплатно и на максимальной скорости!

    Как скачивать? · Что такое торрент? · Рейтинг и ограничения

    !ВНИМАНИЕ!
    Сайт не распространяет и не хранит электронные версии произведений, а занимается лишь лишь предоставлением доступа к создаваемому пользователями каталогу ссылок на торрент-файлы, которые содержат только списки хеш-сумм, убедительная просьба с жалобами обращаться напрямую к пользователю. Файлы для обмена на трекере предоставлены пользователями сайта, и администрация не несёт ответственности за их содержание. Просьба не заливать файлы, защищенные авторскими правами, а также файлы нелегального содержания!


    _________________
    [Профиль] [ЛС]
    Показать сообщения:    
    Ответить на тему

    Текущее время: Сегодня, в 16:20

    Часовой пояс: GMT + 2



    Вы не можете начинать темы
    Вы не можете отвечать на сообщения
    Вы не можете редактировать свои сообщения
    Вы не можете удалять свои сообщения
    Вы не можете голосовать в опросах
    Вы не можете прикреплять файлы к сообщениям
    Вы не можете скачивать файлы