BitTorrentTracker PerecTracker.org
BitTorrentTracker PerecTracker.org
    
Регистрация  ·  Вход
 
 · 
Забыли пароль?

  • Оливер Твист / Oliver Twist (Хэл Сазерленд / Hal Sutherland) [1974, мультфильм, семейный, DVDRip] MVO

    Ответить на тему
     
    Автор Сообщение

    rechyn

    Создавать темы 08-Дек-2015 23:08

           

    [Цитировать]

    Оливер Твист / Oliver Twist-Страна: США
    Жанр: мультфильм, семейный
    Год выпуска: 1974
    Продолжительность: 01:30:19
    Перевод: Профессиональный (многоголосый закадровый) по заказу телеканала "Россия"
    Русские субтитры: Нет-Режиссер: Хэл Сазерленд / Hal Sutherland-Роли озвучивали: Джош Альби (Oliver Twist, озвучка), Филип Л. Кларк (озвучка), Кэтлин Корделл (озвучка), Майкл Эванс (озвучка), Лола Фишер (озвучка), Боб Холт (озвучка), Дави Джонс (The Artful Dodger, озвучка), Ларри Д. Манн (озвучка), Даль МакКеннон (озвучка), Билли Симпсон (Oliver Twist, исполнитель песни), Ларри Сторч (озвучка), Лес Тремейн (Fagin, озвучка)-Описание: 19-й век. Мальчик по имени Оливер Твист, после смерти матери, оказывается на улицах Лондона. Здесь он знакомится с вором по имени Фэджин, который приглашает Оливера в свою команду. Некоторое время спустя Оливер, начинающий вор, попадается на горячем. Однако, поймавший его мистер Браунлоу вместо того, чтобы наказать маленького сорванца, решает его воспитать...-Рейтинг:
    -Мировая премьера: 14 апреля 1981-Релиз: -Качество: DVDRip
    Формат: AVI
    Видео: 640x480 (1.33:1), 23.976 fps, XviD build 65 ~1013 kbps avg, 0.14 bit/pixel
    Аудио: 48 kHz, MPEG Layer 3, 2 ch, ~128.00 kbps avg
    Субтитры: Отсутствуют-

    MI

    Format : AVIFormat/Info : Audio Video InterleaveFile size : 744 MiBDuration : 1h 30mnOverall bit rate : 1 151 KbpsWriting application : VirtualDubMod 1.5.10.3 | www.virtualdub-fr.org || (build 2550/release)Writing library : VirtualDubMod build 2550/release
    VideoID : 0Format : MPEG-4 VisualFormat profile : Advanced Simple@L5Format settings, BVOP : 2Format settings, QPel : NoFormat settings, GMC : No warppointsFormat settings, Matrix : CustomCodec ID : XVIDCodec ID/Hint : XviDDuration : 1h 30mnBit rate : 1 014 KbpsWidth : 640 pixelsHeight : 480 pixelsDisplay aspect ratio : 4:3Frame rate : 23.976 fpsColor space : YUVChroma subsampling : 4:2:0Bit depth : 8 bitsScan type : ProgressiveCompression mode : LossyBits/(Pixel*Frame) : 0.138Stream size : 655 MiB (88%)Writing library : XviD 65
    AudioID : 1Format : MPEG AudioFormat version : Version 1Format profile : Layer 3Codec ID : 55Codec ID/Hint : MP3Duration : 1h 30mnBit rate mode : ConstantBit rate : 128 KbpsChannel(s) : 2 channelsSampling rate : 48.0 KHzCompression mode : LossyStream size : 82.7 MiB (11%)Alignment : Aligned on interleavesInterleave, duration : 42 ms (1.00 video frame)Interleave, preload duration : 504 msWriting library : LAME3.99rEncoding settings : -m s -V 4 -q 2 -lowpass 17 -b 128
    Все раздачи мультфильма!
    Скачать .torrent

    Скачать торрент-файл бесплатно и на максимальной скорости!

    Как скачивать? · Что такое торрент? · Рейтинг и ограничения

    !ВНИМАНИЕ!
    Сайт не распространяет и не хранит электронные версии произведений, а занимается лишь лишь предоставлением доступа к создаваемому пользователями каталогу ссылок на торрент-файлы, которые содержат только списки хеш-сумм, убедительная просьба с жалобами обращаться напрямую к пользователю. Файлы для обмена на трекере предоставлены пользователями сайта, и администрация не несёт ответственности за их содержание. Просьба не заливать файлы, защищенные авторскими правами, а также файлы нелегального содержания!


    _________________
    [Профиль] [ЛС]
    Показать сообщения:    
    Ответить на тему

    Текущее время: Сегодня, в 14:55

    Часовой пояс: GMT + 2



    Вы не можете начинать темы
    Вы не можете отвечать на сообщения
    Вы не можете редактировать свои сообщения
    Вы не можете удалять свои сообщения
    Вы не можете голосовать в опросах
    Вы не можете прикреплять файлы к сообщениям
    Вы не можете скачивать файлы