BitTorrentTracker PerecTracker.org
BitTorrentTracker PerecTracker.org
    
Регистрация  ·  Вход
 
 · 
Забыли пароль?

  • Три разбойника / Die Drei Räuber (Хайо Фрайтаг / Hayo Fraytag) [2007 г., комедия, семейный, мультфильм, DVDRip] Dub + Original

    Ответить на тему
     
    Автор Сообщение

    rechyn

    Создавать темы 08-Дек-2015 23:08

           

    [Цитировать]

    Три разбойника / Die Drei Räuber

    Год выпуска: 2007
    Страна: Германия
    Жанр: Комедия, семейный, мультфильм
    Продолжительность: 01:15:00
    Перевод: Профессиональный (полное дублирование)
    Язык оригинала: Немецкий
    Русские субтитры: нет
    Режиссер: Хайо Фрайтаг / Hayo Fraytag
    Роли озвучивали: Хоаким Крол, Чарли Хюбнер, Катарина Тальбах, Елена Крейл, Максимилиан Рока Юнгфер, Эрвин Ледер
    Описание: Жили-были три безжалостных разбойника, которые бродили по темным лесам, устраивали засады и грабили невинных путешественников. Однажды они встретили сиротку Тиффани, которая перевернула их размеренную разбойничью жизнь с ног на голову...
    - -Качество: DVDRip
    Формат: AVI
    Видео: 704x384 (1.83:1), 25 fps, XviD build 65 ~1874 kbps avg, 0.28 bit/pixel
    Аудио 1: 48 kHz, AC3 Dolby Digital, 3/2 (L,C,R,l,r) + LFE ch, ~448 kbps Russian
    Аудио 2: 48 kHz, AC3 Dolby Digital, 3/2 (L,C,R,l,r) + LFE ch, ~448 kbps Original

    Скриншоты

    Отчет MediaInfo

    GeneralComplete name : Tri.Razbojnika_2007_Olu6ka.aviFormat : AVIFormat/Info : Audio Video InterleaveFile size : 1.46 GiBDuration : 1h 15mnOverall bit rate : 2 786 KbpsWriting application : VirtualDubModRus 1.5.10.2 (build 2542/release)Writing library : VirtualDubMod build 2542/release
    VideoID : 0Format : MPEG-4 VisualFormat profile : Advanced Simple@L5Format settings, BVOP : 1Format settings, QPel : NoFormat settings, GMC : No warppointsFormat settings, Matrix : CustomCodec ID : XVIDCodec ID/Hint : XviDDuration : 1h 15mnBit rate : 1 876 KbpsWidth : 704 pixelsHeight : 384 pixelsDisplay aspect ratio : 1.85:1Frame rate : 25.000 fpsColor space : YUVChroma subsampling : 4:2:0Bit depth : 8 bitsScan type : ProgressiveCompression mode : LossyBits/(Pixel*Frame) : 0.278Stream size : 1 006 MiB (67%)Writing library : XviD 65
    Audio #1ID : 1Format : AC-3Format/Info : Audio Coding 3Mode extension : CM (complete main)Format settings, Endianness : BigCodec ID : 2000Duration : 1h 15mnBit rate mode : ConstantBit rate : 448 KbpsChannel count : 6 channelsChannel positions : Front: L C R, Side: L R, LFESampling rate : 48.0 KHzBit depth : 16 bitsCompression mode : LossyStream size : 240 MiB (16%)Alignment : Split accross interleavesInterleave, duration : 40 ms (1.00 video frame)Interleave, preload duration : 500 ms
    Audio #2ID : 2Format : AC-3Format/Info : Audio Coding 3Mode extension : CM (complete main)Format settings, Endianness : BigCodec ID : 2000Duration : 1h 15mnBit rate mode : ConstantBit rate : 448 KbpsChannel count : 6 channelsChannel positions : Front: L C R, Side: L R, LFESampling rate : 48.0 KHzBit depth : 16 bitsCompression mode : LossyStream size : 240 MiB (16%)Alignment : Split accross interleavesInterleave, duration : 40 ms (1.00 video frame)Interleave, preload duration : 500 ms

    Сравнение

    http://perectracker.org/viewtopic.php?t=1359130 - неудачно подобран деинтерлейс
    По три кадра подряд

    скрытый текст


    -
    http://perectracker.org/viewtopic.php?t=1268037 - излишний кроп, нет оригинальной дорожки
    http://screenshotcomparison.com/comparison/73095/
    Спасибо The_Jester за исходник!Релиз от группы
    Скачать .torrent

    Скачать торрент-файл бесплатно и на максимальной скорости!

    Как скачивать? · Что такое торрент? · Рейтинг и ограничения

    !ВНИМАНИЕ!
    Сайт не распространяет и не хранит электронные версии произведений, а занимается лишь лишь предоставлением доступа к создаваемому пользователями каталогу ссылок на торрент-файлы, которые содержат только списки хеш-сумм, убедительная просьба с жалобами обращаться напрямую к пользователю. Файлы для обмена на трекере предоставлены пользователями сайта, и администрация не несёт ответственности за их содержание. Просьба не заливать файлы, защищенные авторскими правами, а также файлы нелегального содержания!


    _________________
    [Профиль] [ЛС]
    Показать сообщения:    
    Ответить на тему

    Текущее время: Сегодня, в 22:51

    Часовой пояс: GMT + 2



    Вы не можете начинать темы
    Вы не можете отвечать на сообщения
    Вы не можете редактировать свои сообщения
    Вы не можете удалять свои сообщения
    Вы не можете голосовать в опросах
    Вы не можете прикреплять файлы к сообщениям
    Вы не можете скачивать файлы