BitTorrentTracker PerecTracker.org
BitTorrentTracker PerecTracker.org
    
Регистрация  ·  Вход
 
 · 
Забыли пароль?

  • Феи: Загадка пиратского острова / The Pirate Fairy (Пегги Холмс / Peggy Holmes) [2014 г., мультфильм, фэнтези, приключения, семейный, BDRip-AVC] Dub + Eng + Descriptive + Subs (Rus, Eng)

    Ответить на тему
     
    Автор Сообщение

    rechyn

    Создавать темы 08-Дек-2015 23:08

           

    [Цитировать]

    | Все релизы мультфильма || BDRip-AVC, 2.91 GB |-P R E S E N T SФеи: Загадка пиратского острова / The Pirate Fairy-Страна: США
    Жанр: мультфильм, фэнтези, приключения, семейный
    Продолжительность: 01:18:05
    Год выпуска: 2014
    Перевод: Профессиональный (полное дублирование)
    Субтитры: есть-Режиссёр: Пегги Холмс / Peggy Holmes
    Роли озвучивали: Кристина Хендрикс, Мэй Уитман, Том Хиддлстон, Памела Адлон, Анджела Бартис, Меган Хилти, Люси Лью, Рэйвен, Джим Каммингс, Кевин Майкл Ричардсон, Карлос Понсе, Мик Вингерт, Джефф Беннетт, Роб Полсен, Анжелика Хьюстон...
    Роли дублировали: Лена Катина, Анна Бегунова, Сергей Чихачев, Елена Великанова, Анастасия Цветаева, Ирина Рахманова, Ольга Арнтгольц, Оксана Фёдорова и др.- | | -Описание: История о Зарине, смышленой и амбициозной фее, собирающей пыльцу растений. Все начинается с того, что она похищает волшебную пыльцу фей...-Доп. информация: BDRip-AVC 648p сделан с Blu-Ray диска Tinker Bell and the Pirate Fairy (2014) Blu-ray 1080p AVC DD5.1-HDClub.
    Отдельное спасибо xfiles за подготовку русских и английских субтитров.
    -Сэмпл/Sample (45.5 MB, 1 минута)-Качество: BDRip-AVC
    Формат: MKV
    Видео: 1152x648 (1.778:1), 23,976 fps, ~4242 kbps avg, 0.237 bit/pixel
    Аудио #1: Русский, AC3, 6 ch, 48 kHz, 448 kbps - Дубляж
    Аудио #2: English, AC3, 6 ch, 48 kHz, 448 kbps - Original
    Аудио #3: English, AC3, Surround, 2 ch, 48 kHz, 192 kbps - Descriptive
    Субтитры: Русские (полные, форсированные), English (Full, SDH)
    Навигация по главам: есть (12 не именованных глав)
    MediaInfo / x264Log

    x264Log

    raw [info]: 1152x648p 1:1 @ 24000/1001 fps (cfr)x264 [info]: using SAR=1/1x264 [info]: using cpu capabilities: MMX2 SSE2Fast SSSE3 SSE4.2 AVX XOP FMA4 FMA3 LZCNT BMI1x264 [info]: profile High, level 4.1x264 [info]: frame I:1138 Avg QP:12.59 size:153288 PSNR Mean Y:49.83 U:51.61 V:51.72 Avg:50.35 Global:49.94x264 [info]: frame P:29029 Avg QP:15.63 size: 38703 PSNR Mean Y:47.81 U:49.74 V:50.00 Avg:48.38 Global:47.84x264 [info]: frame B:82167 Avg QP:18.70 size: 14437 PSNR Mean Y:47.19 U:49.30 V:49.65 Avg:47.81 Global:47.10x264 [info]: consecutive B-frames: 3.9% 4.4% 11.2% 38.6% 18.8% 17.7% 2.3% 1.3% 0.6% 0.5% 0.3% 0.3% 0.2%x264 [info]: mb I I16..4: 3.1% 66.2% 30.7%x264 [info]: mb P I16..4: 0.8% 14.0% 3.5% P16..4: 19.6% 21.5% 12.0% 3.2% 0.5% skip:24.9%x264 [info]: mb B I16..4: 0.2% 2.6% 0.6% B16..8: 20.4% 15.7% 4.0% direct: 4.8% skip:51.7% L0:37.7% L1:42.7% BI:19.6%x264 [info]: 8x8 transform intra:75.3% inter:48.6%x264 [info]: coded y,uvDC,uvAC intra: 90.4% 90.8% 77.8% inter: 18.1% 16.0% 6.8%x264 [info]: i16 v,h,dc,p: 9% 7% 4% 79%x264 [info]: i8 v,h,dc,ddl,ddr,vr,hd,vl,hu: 14% 13% 9% 8% 10% 10% 11% 11% 14%x264 [info]: i4 v,h,dc,ddl,ddr,vr,hd,vl,hu: 12% 9% 6% 9% 15% 13% 13% 10% 13%x264 [info]: i8c dc,h,v,p: 42% 23% 17% 18%x264 [info]: Weighted P-Frames: Y:2.4% UV:1.8%x264 [info]: ref P L0: 56.8% 10.2% 13.1% 6.2% 4.2% 3.2% 2.5% 1.5% 1.1% 0.9% 0.2% 0.0%x264 [info]: ref B L0: 79.2% 10.8% 4.4% 2.1% 1.4% 0.9% 0.7% 0.3% 0.2%x264 [info]: ref B L1: 93.6% 6.4%x264 [info]: SSIM Mean Y:0.9900531 (20.023db)x264 [info]: PSNR Mean Y:47.378 U:49.441 V:49.760 Avg:47.984 Global:47.301 kb/s:4241.77encoded 112334 frames, 8.80 fps, 4241.77 kb/s
    GeneralUnique ID : 221762525144575205056602442319837505053 (0xA6D5E8A5463BEB95B4680ED15A93A61D)Complete name : The.Pirate.Fairy.2014.BDRip-AVC.648p.dfcbit.mkvFormat : MatroskaFormat version : Version 2File size : 2.91 GiBDuration : 1h 18mnOverall bit rate : 5 332 KbpsEncoded date : UTC 2014-05-23 20:32:20Writing application : mkvmerge v4.0.0 ('The Stars were mine') built on Jun 6 2010 16:18:42Writing library : libebml v1.0.0 + libmatroska v1.0.0
    VideoID : 1Format : AVCFormat/Info : Advanced Video CodecFormat profile : High@L4.1Format settings, CABAC : YesFormat settings, ReFrames : 10 framesCodec ID : V_MPEG4/ISO/AVCDuration : 1h 18mnBit rate : 4 242 KbpsWidth : 1 152 pixelsHeight : 648 pixelsDisplay aspect ratio : 16:9Frame rate mode : ConstantFrame rate : 23.976 fpsColor space : YUVChroma subsampling : 4:2:0Bit depth : 8 bitsScan type : ProgressiveBits/(Pixel*Frame) : 0.237Stream size : 2.31 GiB (78%)Title : NTSC, 1152x648 (1.778:1), BDRip-AVC 648p - tRuAVC & Multfilmy [DFCbit]Writing library : x264 core 142 r2431kMod ac76440Encoding settings : cabac=1 / ref=10 / deblock=1:-2:-1 / analyse=0x3:0x133 / me=umh / subme=11 / psy=1 / fade_compensate=0.00 / psy_rd=0.63:0.00 / mixed_ref=1 / me_range=32 / chroma_me=1 / trellis=2 / 8x8dct=1 / cqm=0 / deadzone=21,11 / fast_pskip=0 / chroma_qp_offset=-2 / threads=12 / lookahead_threads=3 / sliced_threads=0 / nr=0 / decimate=1 / interlaced=0 / bluray_compat=0 / constrained_intra=0 / fgo=0 / bframes=12 / b_pyramid=2 / b_adapt=2 / b_bias=0 / direct=1 / weightb=1 / open_gop=0 / weightp=2 / keyint=250 / keyint_min=23 / scenecut=40 / intra_refresh=0 / rc_lookahead=70 / rc=2pass / mbtree=0 / bitrate=4242 / ratetol=1.0 / qcomp=0.81 / qpmin=0 / qpmax=69 / qpstep=4 / cplxblur=20.0 / qblur=0.5 / vbv_maxrate=50000 / vbv_bufsize=62500 / nal_hrd=none / filler=0 / ip_ratio=1.40 / pb_ratio=1.30 / aq=3:0.90Language : EnglishDefault : YesForced : NoColor primaries : BT.709Transfer characteristics : BT.709Matrix coefficients : BT.709
    Audio #1ID : 2Format : AC-3Format/Info : Audio Coding 3Mode extension : CM (complete main)Format settings, Endianness : BigCodec ID : A_AC3Duration : 1h 18mnBit rate mode : ConstantBit rate : 448 KbpsChannel(s) : 6 channelsChannel positions : Front: L C R, Side: L R, LFESampling rate : 48.0 KHzBit depth : 16 bitsCompression mode : LossyStream size : 250 MiB (8%)Title : AC3, 6 ch, 48 kHz, 448 kbps - ДубляжLanguage : RussianDefault : YesForced : No
    Audio #2ID : 3Format : AC-3Format/Info : Audio Coding 3Mode extension : CM (complete main)Format settings, Endianness : BigCodec ID : A_AC3Duration : 1h 18mnBit rate mode : ConstantBit rate : 448 KbpsChannel(s) : 6 channelsChannel positions : Front: L C R, Side: L R, LFESampling rate : 48.0 KHzBit depth : 16 bitsCompression mode : LossyStream size : 250 MiB (8%)Title : AC3, 6 ch, 48 kHz, 448 kbps - OriginalLanguage : EnglishDefault : NoForced : No
    Audio #3ID : 4Format : AC-3Format/Info : Audio Coding 3Format profile : Dolby DigitalMode extension : CM (complete main)Format settings, Endianness : BigCodec ID : A_AC3Duration : 1h 18mnBit rate mode : ConstantBit rate : 192 KbpsChannel(s) : 2 channelsChannel positions : Front: L RSampling rate : 48.0 KHzBit depth : 16 bitsCompression mode : LossyStream size : 107 MiB (4%)Title : AC3, Surround, 2 ch, 48 kHz, 192 kbps - DescriptiveLanguage : EnglishDefault : NoForced : No
    Text #1ID : 5Format : UTF-8Codec ID : S_TEXT/UTF8Codec ID/Info : UTF-8 Plain TextTitle : SRT, FullLanguage : RussianDefault : NoForced : No
    Text #2ID : 6Format : UTF-8Codec ID : S_TEXT/UTF8Codec ID/Info : UTF-8 Plain TextTitle : SRT, ForcedLanguage : RussianDefault : NoForced : No
    Text #3ID : 7Format : UTF-8Codec ID : S_TEXT/UTF8Codec ID/Info : UTF-8 Plain TextTitle : SRT, FullLanguage : EnglishDefault : NoForced : No
    Text #4ID : 8Format : UTF-8Codec ID : S_TEXT/UTF8Codec ID/Info : UTF-8 Plain TextTitle : SRT, (SDH)Language : EnglishDefault : NoForced : No
    Menu00:00:00.000 : en:Chapter 100:04:05.996 : en:Chapter 200:07:36.665 : en:Chapter 300:14:32.747 : en:Chapter 400:20:17.925 : en:Chapter 500:28:10.814 : en:Chapter 600:33:03.607 : en:Chapter 700:40:12.201 : en:Chapter 800:45:53.334 : en:Chapter 900:53:51.520 : en:Chapter 1001:03:41.609 : en:Chapter 1101:08:40.742 : en:Chapter 12

    Скриншоты

    Скриншот с названием мультфильма
    --BDRip-AVC


    Source Blu-Ray

    Релиз от групп | and |-Данный релиз не будет воспроизводиться на бытовых плеерах не поддерживающих MKV и H.264Обсуждение релизов в AVC формате || Свежие AVC рипы
    Скачать .torrent

    Скачать торрент-файл бесплатно и на максимальной скорости!

    Как скачивать? · Что такое торрент? · Рейтинг и ограничения

    !ВНИМАНИЕ!
    Сайт не распространяет и не хранит электронные версии произведений, а занимается лишь лишь предоставлением доступа к создаваемому пользователями каталогу ссылок на торрент-файлы, которые содержат только списки хеш-сумм, убедительная просьба с жалобами обращаться напрямую к пользователю. Файлы для обмена на трекере предоставлены пользователями сайта, и администрация не несёт ответственности за их содержание. Просьба не заливать файлы, защищенные авторскими правами, а также файлы нелегального содержания!


    _________________
    [Профиль] [ЛС]
    Показать сообщения:    
    Ответить на тему

    Текущее время: Сегодня, в 21:22

    Часовой пояс: GMT + 2



    Вы не можете начинать темы
    Вы не можете отвечать на сообщения
    Вы не можете редактировать свои сообщения
    Вы не можете удалять свои сообщения
    Вы не можете голосовать в опросах
    Вы не можете прикреплять файлы к сообщениям
    Вы не можете скачивать файлы