BitTorrentTracker PerecTracker.org
BitTorrentTracker PerecTracker.org
    
Регистрация  ·  Вход
 
 · 
Забыли пароль?

  • Принцесса и гоблин / The Princess and the Goblin (Йожеф Гемес / József Gémes) [1991, Великобритания, Венгрия, Япония, детский, семейный, DVDRip] AVO (Алексеев) + Original Eng

    Ответить на тему
     
    Автор Сообщение

    rechyn

    Создавать темы 08-Дек-2015 23:08

           

    [Цитировать]

    Принцесса и гоблин / The Princess and the Goblin
    Страна: Великобритания, Венгрия, Япония
    Жанр: детский, семейный
    Год выпуска: 1991
    Продолжительность: 01:18:13
    Перевод: Авторский (одноголосый закадровый) Антона Алексеева
    Cубтитры: нет
    Оригинальная аудиодорожка: английский
    Режиссер: Йожеф Гемес / József Gémes
    В ролях: Клер Блум /Claire Bloom/, Рой Кинниэр /Roy Kinnear/, Сэлли Энн Марш, Джосс Эклэнд /Joss Ackland/
    Рецензия Михаила Иванова: Король отправился в поход, оставив свою дочь принцессу Айрин на попечение старой няни Лютти, любившей поспать. Принцесса и ее кот по кличке Репка углубились в лес и потерялись, испугавшись черных когтистых лап, пытавшихся поймать их. А в лесу жили страшные гоблины, и неизвестно, чем бы закончились волшебные приключения Айрин, если бы не мальчик Керти, который научил ее петь, чтобы отпугивать гоблинов. Неплохой рисованый мультфильм. В США выпущен в 1994 году.
    ИЗ СЕРИИ ЛЮБИМЫЕ ПЕРЕВОДЫ
    >> в переводах Михалёва, Горчакова и Кузнецова <<
    Качество видео: DVDRip >> Сэмпл
    Формат видео: AVI
    Видео: 704x544 (1.29:1), 25 fps, XviD build 50 ~2205 kbps avg, 0.23 bit/pixel - исходник от formally
    Аудио 1: 48 kHz, AC3 Dolby Digital, 2/0 (L,R) ch, ~192 kbps - перевод Алексеева оцифрован и синхронизирован мной с коллекционной VHS
    Аудио 2: 48 kHz, AC3 Dolby Digital, 2/0 (L,R) ch, ~192 kbps - english

    MediaInfo

    Формат : AVI
    Формат/Информация : Audio Video Interleave
    Размер файла : 1,42 Гбайт
    Продолжительность : 1 ч. 18 м.
    Общий поток : 2605 Кбит/сек
    Название фильма : The Princess and the Goblin (1991)
    Программа кодирования : VirtualDubMod 1.5.10.3 | www.virtualdub-fr.org || (build 2550/release)
    Библиотека кодирования : VirtualDubMod build 2550/release
    Правообладатель : sasikainen
    Видео
    Идентификатор : 0
    Формат : MPEG-4 Visual
    Профиль формата : Advanced Simple@L5
    Параметр BVOP формата : 2
    Параметр QPel формата : Нет
    Параметр GMC формата : Без точки перехода
    Параметр матрицы формата : Default (MPEG)
    Идентификатор кодека : XVID
    Идентификатор кодека/Подсказка : XviD
    Продолжительность : 1 ч. 18 м.
    Битрейт : 2207 Кбит/сек
    Ширина : 704 пикселя
    Высота : 544 пикселя
    Соотношение сторон : 1,294
    Частота кадров : 25,000 кадров/сек
    Цветовое пространство : YUV
    Субдискретизация насыщенности : 4:2:0
    Битовая глубина : 8 бит
    Тип развёртки : Прогрессивная
    Метод сжатия : С потерями
    Бит/(Пиксели*Кадры) : 0.230
    Размер потока : 1,21 Гбайт (85%)
    Библиотека кодирования : XviD 1.2.1 (UTC 2008-12-04)
    Аудио #1
    Идентификатор : 1
    Формат : AC-3
    Формат/Информация : Audio Coding 3
    Расширение режима : CM (complete main)
    Параметр Endianness формата : Big
    Идентификатор кодека : 2000
    Продолжительность : 1 ч. 18 м.
    Вид битрейта : Постоянный
    Битрейт : 192 Кбит/сек
    Каналы : 2 канала
    Расположение каналов : Front: L R
    Частота : 48,0 КГц
    Битовая глубина : 16 бит
    Метод сжатия : С потерями
    Размер потока : 107 Мбайт (7%)
    Выравнивание : Разделение по промежуткам
    Продолжительность промежутка : 40 мс. (1,00 видеокадр)
    Время предзагрузки промежутка : 500 мс.
    Заголовок : Alekseev
    Аудио #2
    Идентификатор : 2
    Формат : AC-3
    Формат/Информация : Audio Coding 3
    Расширение режима : CM (complete main)
    Параметр Endianness формата : Big
    Идентификатор кодека : 2000
    Продолжительность : 1 ч. 18 м.
    Вид битрейта : Постоянный
    Битрейт : 192 Кбит/сек
    Каналы : 2 канала
    Расположение каналов : Front: L R
    Частота : 48,0 КГц
    Битовая глубина : 16 бит
    Метод сжатия : С потерями
    Размер потока : 107 Мбайт (7%)
    Выравнивание : Разделение по промежуткам
    Продолжительность промежутка : 40 мс. (1,00 видеокадр)
    Время предзагрузки промежутка : 500 мс.
    Заголовок : english

    Скриншоты

    Скачать .torrent

    Скачать торрент-файл бесплатно и на максимальной скорости!

    Как скачивать? · Что такое торрент? · Рейтинг и ограничения

    !ВНИМАНИЕ!
    Сайт не распространяет и не хранит электронные версии произведений, а занимается лишь лишь предоставлением доступа к создаваемому пользователями каталогу ссылок на торрент-файлы, которые содержат только списки хеш-сумм, убедительная просьба с жалобами обращаться напрямую к пользователю. Файлы для обмена на трекере предоставлены пользователями сайта, и администрация не несёт ответственности за их содержание. Просьба не заливать файлы, защищенные авторскими правами, а также файлы нелегального содержания!


    _________________
    [Профиль] [ЛС]
    Показать сообщения:    
    Ответить на тему

    Текущее время: Сегодня, в 09:58

    Часовой пояс: GMT + 2



    Вы не можете начинать темы
    Вы не можете отвечать на сообщения
    Вы не можете редактировать свои сообщения
    Вы не можете удалять свои сообщения
    Вы не можете голосовать в опросах
    Вы не можете прикреплять файлы к сообщениям
    Вы не можете скачивать файлы