BitTorrentTracker PerecTracker.org
BitTorrentTracker PerecTracker.org
    
Регистрация  ·  Вход
 
 · 
Забыли пароль?

  • Джастин и рыцари доблести / Justin and the Knights of Valour / Justin y la Espada del Valor (Мануэль Сисилия / Manuel Sicilia) [2013 г., мультфильм, приключения, семейный, BDRip-AVC] (SPA Transfer) Dub + Eng + Spa + Subs (Rus, Eng, Spa)

    Ответить на тему
     
    Автор Сообщение

    rechyn

    Создавать темы 08-Дек-2015 23:08

           

    [Цитировать]

    | Все релизы мультфильма || BDRip-AVC, 2.91 GB |-A N T O N I O
    B A N D E R A S
    P R E S E N T SДжастин и рыцари доблести / Justin and the Knights of Valour / Justin y la Espada del Valor-Страна: Испания
    Жанр: мультфильм, приключения, семейный
    Продолжительность: 01:36:20
    Год выпуска: 2013
    Перевод: Профессиональный (полное дублирование)
    Субтитры: есть-Режиссёр: Мануэль Сисилия / Manuel Sicilia
    Роли озвучивали: Фредди Хаймор, Сирша Ронан, Марк Стронг, Дэвид Уоллиамс, Антонио Бандерас, Альфред Молина, Джули Уолтерс, Оливия Уильямс, Чарльз Дэнс, Руперт Эверетт, Джеймс Космо, Майкл Калкин, Тэмсин Эгертон, Стивен Хьюз, Бэрри Хамфриз, Ллойд Хатчинсон...
    Роли дублировали: Николай Быстров, Лина Иванова, Владимир Антоник, Константин Карасик, Алексей Чумаков, Ольга Зубкова, Андрей Ярославцев, Владимир Левашёв, Татьяна Шитова, Александр Пожаров, Иван Жарков, Михаил Тихонов и др.- | | -Описание: Действие мультфильма разворачивается в магическом мире, о котором мечтает каждый ребёнок. Джастин мечтает стать рыцарем, но на его пути появляется много препятствий бюрократического характера. Даже отец Джастина против рыцарства и хочет, чтобы сын стал придворным служащим. Тогда мальчик, обуреваемый желанием стать настоящим доблестным Рыцарем, сбегает из дома в поисках приключений. По дороге он знакомится с прекрасной девушкой - Талией, вдохновляющей его на новые подвиги, и встречает мудрых рыцарей-наставников, которые обучают его рыцарскому мастерству. Но хватит ли Джастину полученных знаний для того, чтобы справиться с угрозой, которая нависла над его Королевством? Сумеет ли мальчик преодолеть все препятствия и достичь своей мечты?...-Доп. информация: BDRip-AVC 500p сделан с Blu-Ray диска Justin y la Espada del Valor 2D+3D SPA Blu-ray 1080p AVC DTS HD MA 5.1-CHDbits (SPA Transfer).
    Отдельное спасибо Страник 2.0 за изготовление русских субтитров к этому мультфильму.
    -Сэмпл/Sample (20.8 MB, 1 минута)-JustinAndTheKnightsOfValour2013Ukr6ch448kbps.ac3 (309 MB)-Качество: BDRip-AVC
    Формат: MKV
    Видео: 1194x500 (2.39:1), 23,976 fps, ~2975 kbps avg, 0.208 bit/pixel
    Аудио #1: Русский, AC3, 6 ch, 48 kHz, 448 kbps - Дубляж | BD RUS
    Аудио #2: English, AC3, 6 ch, 48 kHz, 448 kbps - Dubbing
    Аудио #3: Spanish, AC3, 6 ch, 48 kHz, 448 kbps - Original
    Субтитры: Русские (полные by Страник 2.0), English (Full), Spanish (Full, SDH)
    Навигация по главам: есть (12 не именованных глав)

    Скриншоты сравнения Трансферов RUS<->GER<->SPA

    ...BD RUS.................................................BD GER.................................................BD SPA...

    MediaInfo / x264Log

    x264Log

    raw [info]: 1194x500p 1:1 @ 24000/1001 fps (cfr)x264 [info]: using SAR=1/1x264 [info]: using cpu capabilities: MMX2 SSE2Fast SSSE3 SSE4.2 AVX XOP FMA4 FMA3 LZCNT BMI1x264 [info]: profile High, level 4.1x264 [info]: frame I:1448 Avg QP:13.74 size:115318 PSNR Mean Y:49.00 U:51.25 V:51.30 Avg:49.62 Global:49.20x264 [info]: frame P:34015 Avg QP:16.15 size: 32026 PSNR Mean Y:46.94 U:49.28 V:49.33 Avg:47.57 Global:47.08x264 [info]: frame B:103123 Avg QP:19.17 size: 8665 PSNR Mean Y:46.40 U:49.00 V:49.03 Avg:47.08 Global:46.50x264 [info]: consecutive B-frames: 3.3% 3.8% 14.4% 27.0% 13.1% 34.9% 1.5% 0.4% 0.5% 0.2% 0.3% 0.4% 0.1% 0.2%x264 [info]: mb I I16..4: 2.6% 63.1% 34.3%x264 [info]: mb P I16..4: 0.8% 13.6% 4.2% P16..4: 25.8% 26.4% 14.4% 3.6% 0.5% skip:10.7%x264 [info]: mb B I16..4: 0.2% 2.0% 0.7% B16..8: 25.3% 17.5% 3.6% direct: 4.6% skip:46.1% L0:37.8% L1:43.0% BI:19.2%x264 [info]: 8x8 transform intra:70.4% inter:52.8%x264 [info]: coded y,uvDC,uvAC intra: 82.7% 90.5% 77.8% inter: 18.3% 16.4% 5.9%x264 [info]: i16 v,h,dc,p: 25% 16% 5% 54%x264 [info]: i8 v,h,dc,ddl,ddr,vr,hd,vl,hu: 15% 14% 10% 7% 10% 10% 10% 11% 14%x264 [info]: i4 v,h,dc,ddl,ddr,vr,hd,vl,hu: 34% 10% 8% 6% 10% 9% 9% 7% 8%x264 [info]: i8c dc,h,v,p: 35% 27% 20% 17%x264 [info]: Weighted P-Frames: Y:4.2% UV:2.6%x264 [info]: ref P L0: 54.5% 12.3% 12.9% 6.2% 4.3% 3.2% 2.4% 1.4% 1.1% 0.9% 0.7% 0.1% 0.0%x264 [info]: ref B L0: 81.1% 10.0% 4.1% 1.8% 1.1% 0.8% 0.6% 0.3% 0.2% 0.1%x264 [info]: ref B L1: 93.3% 6.7%x264 [info]: SSIM Mean Y:0.9894410 (19.764db)x264 [info]: PSNR Mean Y:46.559 U:49.092 V:49.127 Avg:47.228 Global:46.659 kb/s:2975.57encoded 138586 frames, 10.77 fps, 2975.57 kb/s
    GeneralUnique ID : 221774900515092010036152938535176841411 (0xA6D84ACC690094E8A253704965FF28C3)Complete name : Justin.and.the.Knights.of.Valour.2013.Spa.Video.BDRip-AVC.500p.dfcbit.mkvFormat : MatroskaFormat version : Version 2File size : 2.91 GiBDuration : 1h 36mnOverall bit rate : 4 322 KbpsEncoded date : UTC 2014-06-06 16:13:57Writing application : mkvmerge v4.0.0 ('The Stars were mine') built on Jun 6 2010 16:18:42Writing library : libebml v1.0.0 + libmatroska v1.0.0
    VideoID : 1Format : AVCFormat/Info : Advanced Video CodecFormat profile : High@L4.1Format settings, CABAC : YesFormat settings, ReFrames : 11 framesCodec ID : V_MPEG4/ISO/AVCDuration : 1h 36mnBit rate : 2 975 KbpsWidth : 1 194 pixelsHeight : 500 pixelsDisplay aspect ratio : 2.39:1Frame rate mode : ConstantFrame rate : 23.976 fpsColor space : YUVChroma subsampling : 4:2:0Bit depth : 8 bitsScan type : ProgressiveBits/(Pixel*Frame) : 0.208Stream size : 2.00 GiB (67%)Title : NTSC, 1194x500 (2.39:1), BDRip-AVC 500p - tRuAVC & Multfilmy [DFCbit]Writing library : x264 core 142 r2431kMod ac76440Encoding settings : cabac=1 / ref=11 / deblock=1:-2:-1 / analyse=0x3:0x133 / me=umh / subme=11 / psy=1 / fade_compensate=0.00 / psy_rd=0.63:0.00 / mixed_ref=1 / me_range=32 / chroma_me=1 / trellis=2 / 8x8dct=1 / cqm=0 / deadzone=21,11 / fast_pskip=0 / chroma_qp_offset=-2 / threads=12 / lookahead_threads=3 / sliced_threads=0 / nr=0 / decimate=1 / interlaced=0 / bluray_compat=0 / constrained_intra=0 / fgo=0 / bframes=13 / b_pyramid=2 / b_adapt=2 / b_bias=0 / direct=1 / weightb=1 / open_gop=0 / weightp=2 / keyint=250 / keyint_min=23 / scenecut=40 / intra_refresh=0 / rc_lookahead=70 / rc=2pass / mbtree=0 / bitrate=2975 / ratetol=1.0 / qcomp=0.81 / qpmin=0 / qpmax=69 / qpstep=4 / cplxblur=20.0 / qblur=0.5 / vbv_maxrate=25000 / vbv_bufsize=50000 / nal_hrd=none / filler=0 / ip_ratio=1.40 / pb_ratio=1.30 / aq=3:0.90Language : SpanishDefault : YesForced : NoColor primaries : BT.709Transfer characteristics : BT.709Matrix coefficients : BT.709
    Audio #1ID : 2Format : AC-3Format/Info : Audio Coding 3Mode extension : CM (complete main)Format settings, Endianness : BigCodec ID : A_AC3Duration : 1h 36mnBit rate mode : ConstantBit rate : 448 KbpsChannel(s) : 6 channelsChannel positions : Front: L C R, Side: L R, LFESampling rate : 48.0 KHzBit depth : 16 bitsCompression mode : LossyStream size : 309 MiB (10%)Title : AC3, 6 ch, 48 kHz, 448 kbps - Дубляж | BD RUSLanguage : RussianDefault : YesForced : No
    Audio #2ID : 3Format : AC-3Format/Info : Audio Coding 3Mode extension : CM (complete main)Format settings, Endianness : BigCodec ID : A_AC3Duration : 1h 36mnBit rate mode : ConstantBit rate : 448 KbpsChannel(s) : 6 channelsChannel positions : Front: L C R, Side: L R, LFESampling rate : 48.0 KHzBit depth : 16 bitsCompression mode : LossyStream size : 309 MiB (10%)Title : AC3, 6 ch, 48 kHz, 448 kbps - DubbingLanguage : EnglishDefault : NoForced : No
    Audio #3ID : 4Format : AC-3Format/Info : Audio Coding 3Mode extension : CM (complete main)Format settings, Endianness : BigCodec ID : A_AC3Duration : 1h 36mnBit rate mode : ConstantBit rate : 448 KbpsChannel(s) : 6 channelsChannel positions : Front: L C R, Side: L R, LFESampling rate : 48.0 KHzBit depth : 16 bitsCompression mode : LossyStream size : 309 MiB (10%)Title : AC3, 6 ch, 48 kHz, 448 kbps - OriginalLanguage : SpanishDefault : NoForced : No
    Text #1ID : 5Format : UTF-8Codec ID : S_TEXT/UTF8Codec ID/Info : UTF-8 Plain TextTitle : SRT, Full by Страник 2.0Language : RussianDefault : NoForced : No
    Text #2ID : 6Format : UTF-8Codec ID : S_TEXT/UTF8Codec ID/Info : UTF-8 Plain TextTitle : SRT, FullLanguage : EnglishDefault : NoForced : No
    Text #3ID : 7Format : UTF-8Codec ID : S_TEXT/UTF8Codec ID/Info : UTF-8 Plain TextTitle : SRT, FullLanguage : SpanishDefault : NoForced : No
    Text #4ID : 8Format : UTF-8Codec ID : S_TEXT/UTF8Codec ID/Info : UTF-8 Plain TextTitle : SRT, (SDH)Language : SpanishDefault : NoForced : No
    Menu00:00:00.000 : en:Chapter 100:09:55.470 : en:Chapter 200:16:37.538 : en:Chapter 300:23:41.670 : en:Chapter 400:33:48.193 : en:Chapter 500:41:18.559 : en:Chapter 600:46:35.876 : en:Chapter 700:54:15.335 : en:Chapter 801:06:25.356 : en:Chapter 901:16:07.605 : en:Chapter 1001:24:04.373 : en:Chapter 1101:30:16.745 : en:Chapter 12

    Скриншоты

    Скриншот с названием мультфильма
    --BDRip-AVC


    Source Blu-Ray

    Релиз от групп | and |-Данный релиз не будет воспроизводиться на бытовых плеерах не поддерживающих MKV и H.264Обсуждение релизов в AVC формате || Свежие AVC рипы
    Скачать .torrent

    Скачать торрент-файл бесплатно и на максимальной скорости!

    Как скачивать? · Что такое торрент? · Рейтинг и ограничения

    !ВНИМАНИЕ!
    Сайт не распространяет и не хранит электронные версии произведений, а занимается лишь лишь предоставлением доступа к создаваемому пользователями каталогу ссылок на торрент-файлы, которые содержат только списки хеш-сумм, убедительная просьба с жалобами обращаться напрямую к пользователю. Файлы для обмена на трекере предоставлены пользователями сайта, и администрация не несёт ответственности за их содержание. Просьба не заливать файлы, защищенные авторскими правами, а также файлы нелегального содержания!


    _________________
    [Профиль] [ЛС]
    Показать сообщения:    
    Ответить на тему

    Текущее время: Сегодня, в 12:49

    Часовой пояс: GMT + 2



    Вы не можете начинать темы
    Вы не можете отвечать на сообщения
    Вы не можете редактировать свои сообщения
    Вы не можете удалять свои сообщения
    Вы не можете голосовать в опросах
    Вы не можете прикреплять файлы к сообщениям
    Вы не можете скачивать файлы