BitTorrentTracker PerecTracker.org
BitTorrentTracker PerecTracker.org
    
Регистрация  ·  Вход
 
 · 
Забыли пароль?

  • Лего. Фильм / The Lego Movie (Фил Лорд, Кристофер Миллер / Phil Lord, Christopher Miller) [2014 г., мультфильм, фэнтези, приключения, семейный, BDRip-AVC] Dub + Ukr + Eng + Com + Subs (Rus, Ukr, Eng)

    Ответить на тему
     
    Автор Сообщение

    rechyn

    Создавать темы 08-Дек-2015 23:08

           

    [Цитировать]

    | Все релизы мультфильма || BDRip-AVC, 2.91 GB |-P R E S E N T SЛего. Фильм / The Lego Movie-Страна: США
    Жанр: мультфильм, фэнтези, приключения, семейный
    Продолжительность: 01:40:35
    Год выпуска: 2014
    Перевод: Профессиональный (полное дублирование)
    Субтитры: есть-Режиссёр: Фил Лорд, Кристофер Миллер / Phil Lord, Christopher Miller
    Роли озвучивали: Крис Прэтт, Уилл Феррелл, Элизабет Бэнкс, Уилл Арнетт, Лиам Нисон, Морган Фриман, Крэйг Берри, Элисон Бри, Дэвид Берроуз, Энтони Дэниелс, Чарли Дэй, Аманда Фаринос, Кит Фергюсон, Уилл Форте, Дэйв Франко, Тодд Хансен, Джона Хилл, Шакил О'Нил, Ник Офферман, Джэдон Сэнд, Коби Смолдерс, Мелисса Штурм, Лейки Вескиметс...
    Роли дублировали: Константин Карасик, Александр Ревва, Алексей Колган, Ирина Киреева, Гоша Куценко, Владислав Копп, Василий Бочкарев, Мария Иващенко, Дмитрий Филимонов, Дмитрий Поляновский, Ян Розенберг, Сергей Чихачев, Данил Щебланов, Михаил Белякович, Гарик Харламов, Даня Бледный, Светлана Молодцова, Галина Корнева и др.- | | - Рекомендуется присутствие родителей-Описание: Обычная лего-фигурка соглашается присоединиться к походу против злого лего-диктатора, планирующего склеить вместе всю вселенную...-Доп. информация: BDRip-AVC 472p сделан с Blu-Ray диска The Lego Movie (2014) Blu-ray CEE 1080p AVC DD5.1.-Сэмпл/Sample (43.5 MB, 1 минута)-Качество: BDRip-AVC
    Формат: MKV
    Видео: 1130x472 (2.394:1), 23,976 fps, ~2601 kbps avg, 0.203 bit/pixel
    Аудио #1: Русский, AC3, 6 ch, 48 kHz, 448 kbps - Дубляж | BD CEE
    Аудио #2: Украинский, AC3, 6 ch, 48 kHz, 448 kbps - Дубляж | BD CEE
    Аудио #3: English, AC3, 6 ch, 48 kHz, 448 kbps - Original
    Аудио #4: English, AC3, Surround, 2 ch, 48 kHz, 192 kbps - Commentary Directors Chris Miller and Phil Lord with actors Chris Pratt, Will Arnett, Charlie Day and Alison Brie
    Субтитры: Русские (полные, форсированные), Украинские (полные, форсированные | iTunes), English (Full, SDH)
    Навигация по главам: есть (11 не именованных глав)
    MediaInfo / x264Log

    x264Log

    raw [info]: 1130x472p 1:1 @ 24000/1001 fps (cfr)x264 [info]: using SAR=1/1x264 [info]: using cpu capabilities: MMX2 SSE2Fast SSSE3 SSE4.2 AVX XOP FMA4 FMA3 LZCNT BMI1x264 [info]: profile High, level 4.1x264 [info]: frame I:1376 Avg QP:14.77 size: 80119 PSNR Mean Y:48.40 U:49.75 V:49.33 Avg:48.73 Global:48.36x264 [info]: frame P:36769 Avg QP:17.49 size: 27123 PSNR Mean Y:46.29 U:47.77 V:47.15 Avg:46.62 Global:46.17x264 [info]: frame B:106558 Avg QP:19.37 size: 8022 PSNR Mean Y:46.03 U:47.67 V:46.93 Avg:46.38 Global:45.75x264 [info]: consecutive B-frames: 4.0% 4.1% 9.2% 43.1% 12.5% 15.1% 3.0% 6.2% 0.6% 0.4% 0.3% 0.9% 0.2% 0.4%x264 [info]: mb I I16..4: 3.5% 69.7% 26.9%x264 [info]: mb P I16..4: 1.7% 15.1% 4.3% P16..4: 27.0% 31.8% 12.2% 1.8% 0.2% skip: 6.0%x264 [info]: mb B I16..4: 0.3% 1.8% 0.5% B16..8: 29.3% 19.9% 3.8% direct: 4.4% skip:40.0% L0:42.3% L1:44.7% BI:13.1%x264 [info]: 8x8 transform intra:70.7% inter:64.5%x264 [info]: coded y,uvDC,uvAC intra: 82.8% 94.0% 82.4% inter: 17.7% 26.2% 10.9%x264 [info]: i16 v,h,dc,p: 9% 15% 4% 72%x264 [info]: i8 v,h,dc,ddl,ddr,vr,hd,vl,hu: 14% 13% 6% 8% 11% 11% 12% 11% 14%x264 [info]: i4 v,h,dc,ddl,ddr,vr,hd,vl,hu: 15% 13% 4% 9% 13% 12% 12% 10% 13%x264 [info]: i8c dc,h,v,p: 36% 27% 19% 18%x264 [info]: Weighted P-Frames: Y:6.6% UV:5.3%x264 [info]: ref P L0: 50.9% 10.7% 15.1% 6.9% 4.9% 3.6% 2.8% 1.7% 1.3% 1.1% 0.9% 0.1% 0.0%x264 [info]: ref B L0: 71.5% 13.4% 5.8% 3.1% 2.1% 1.5% 1.2% 0.7% 0.4% 0.2%x264 [info]: ref B L1: 93.3% 6.7%x264 [info]: SSIM Mean Y:0.9881297 (19.255db)x264 [info]: PSNR Mean Y:46.117 U:47.710 V:47.009 Avg:46.460 Global:45.869 kb/s:2601.16encoded 144703 frames, 10.95 fps, 2601.16 kb/s
    GeneralUnique ID : 242571311690649451867386507337931405662 (0xB67D890855BED117B3C3AAFF9907B95E)Complete name : The.Lego.Movie.2014.BDRip-AVC.472p.dfcbit.mkvFormat : MatroskaFormat version : Version 2File size : 2.91 GiBDuration : 1h 40mnOverall bit rate : 4 140 KbpsEncoded date : UTC 2014-06-14 02:14:33Writing application : mkvmerge v4.0.0 ('The Stars were mine') built on Jun 6 2010 16:18:42Writing library : libebml v1.0.0 + libmatroska v1.0.0
    VideoID : 1Format : AVCFormat/Info : Advanced Video CodecFormat profile : High@L4.1Format settings, CABAC : YesFormat settings, ReFrames : 11 framesCodec ID : V_MPEG4/ISO/AVCDuration : 1h 40mnBit rate : 2 601 KbpsWidth : 1 130 pixelsHeight : 472 pixelsDisplay aspect ratio : 2.40:1Frame rate mode : ConstantFrame rate : 23.976 fpsColor space : YUVChroma subsampling : 4:2:0Bit depth : 8 bitsScan type : ProgressiveBits/(Pixel*Frame) : 0.203Stream size : 1.83 GiB (61%)Title : NTSC, 1130x472 (2.394:1), BDRip-AVC 472p - tRuAVC & Multfilmy [DFCbit]Writing library : x264 core 142 r2431kMod ac76440Encoding settings : cabac=1 / ref=11 / deblock=1:-2:-1 / analyse=0x3:0x133 / me=umh / subme=11 / psy=1 / fade_compensate=0.00 / psy_rd=0.63:0.00 / mixed_ref=1 / me_range=32 / chroma_me=1 / trellis=2 / 8x8dct=1 / cqm=0 / deadzone=21,11 / fast_pskip=0 / chroma_qp_offset=-2 / threads=12 / lookahead_threads=3 / sliced_threads=0 / nr=0 / decimate=1 / interlaced=0 / bluray_compat=0 / constrained_intra=0 / fgo=0 / bframes=13 / b_pyramid=2 / b_adapt=2 / b_bias=0 / direct=1 / weightb=1 / open_gop=0 / weightp=2 / keyint=250 / keyint_min=23 / scenecut=40 / intra_refresh=0 / rc_lookahead=70 / rc=2pass / mbtree=0 / bitrate=2601 / ratetol=1.0 / qcomp=0.81 / qpmin=0 / qpmax=69 / qpstep=4 / cplxblur=20.0 / qblur=0.5 / vbv_maxrate=50000 / vbv_bufsize=62500 / nal_hrd=none / filler=0 / ip_ratio=1.40 / pb_ratio=1.30 / aq=3:0.90Language : EnglishDefault : YesForced : NoColor primaries : BT.709Transfer characteristics : BT.709Matrix coefficients : BT.709
    Audio #1ID : 2Format : AC-3Format/Info : Audio Coding 3Mode extension : CM (complete main)Format settings, Endianness : BigCodec ID : A_AC3Duration : 1h 40mnBit rate mode : ConstantBit rate : 448 KbpsChannel(s) : 6 channelsChannel positions : Front: L C R, Side: L R, LFESampling rate : 48.0 KHzBit depth : 16 bitsCompression mode : LossyStream size : 322 MiB (11%)Title : AC3, 6 ch, 48 kHz, 448 kbps - Дубляж | BD CEELanguage : RussianDefault : YesForced : No
    Audio #2ID : 3Format : AC-3Format/Info : Audio Coding 3Mode extension : CM (complete main)Format settings, Endianness : BigCodec ID : A_AC3Duration : 1h 40mnBit rate mode : ConstantBit rate : 448 KbpsChannel(s) : 6 channelsChannel positions : Front: L C R, Side: L R, LFESampling rate : 48.0 KHzBit depth : 16 bitsCompression mode : LossyStream size : 322 MiB (11%)Title : AC3, 6 ch, 48 kHz, 448 kbps - Дубляж | BD CEELanguage : UkrainianDefault : NoForced : No
    Audio #3ID : 4Format : AC-3Format/Info : Audio Coding 3Mode extension : CM (complete main)Format settings, Endianness : BigCodec ID : A_AC3Duration : 1h 40mnBit rate mode : ConstantBit rate : 448 KbpsChannel(s) : 6 channelsChannel positions : Front: L C R, Side: L R, LFESampling rate : 48.0 KHzBit depth : 16 bitsCompression mode : LossyStream size : 322 MiB (11%)Title : AC3, 6 ch, 48 kHz, 448 kbps - OriginalLanguage : EnglishDefault : NoForced : No
    Audio #4ID : 5Format : AC-3Format/Info : Audio Coding 3Format profile : Dolby DigitalMode extension : CM (complete main)Format settings, Endianness : BigCodec ID : A_AC3Duration : 1h 40mnBit rate mode : ConstantBit rate : 192 KbpsChannel(s) : 2 channelsChannel positions : Front: L RSampling rate : 48.0 KHzBit depth : 16 bitsCompression mode : LossyStream size : 138 MiB (5%)Title : AC3, Surround, 2 ch, 48 kHz, 192 kbps - Commentary Directors Chris Miller and Phil Lord with actors Chris Pratt, Will Arnett, Charlie Day and Alison BrieLanguage : EnglishDefault : NoForced : No
    Text #1ID : 6Format : UTF-8Codec ID : S_TEXT/UTF8Codec ID/Info : UTF-8 Plain TextTitle : SRT, FullLanguage : RussianDefault : NoForced : No
    Text #2ID : 7Format : UTF-8Codec ID : S_TEXT/UTF8Codec ID/Info : UTF-8 Plain TextTitle : SRT, ForcedLanguage : RussianDefault : NoForced : No
    Text #3ID : 8Format : UTF-8Codec ID : S_TEXT/UTF8Codec ID/Info : UTF-8 Plain TextTitle : SRT, Full | iTunesLanguage : UkrainianDefault : NoForced : No
    Text #4ID : 9Format : UTF-8Codec ID : S_TEXT/UTF8Codec ID/Info : UTF-8 Plain TextTitle : SRT, Forced | iTunesLanguage : UkrainianDefault : NoForced : No
    Text #5ID : 10Format : UTF-8Codec ID : S_TEXT/UTF8Codec ID/Info : UTF-8 Plain TextTitle : SRT, FullLanguage : EnglishDefault : NoForced : No
    Text #6ID : 11Format : UTF-8Codec ID : S_TEXT/UTF8Codec ID/Info : UTF-8 Plain TextTitle : SRT, (SDH)Language : EnglishDefault : NoForced : No
    Menu00:00:00.000 : en:Chapter 100:09:44.042 : en:Chapter 200:18:18.389 : en:Chapter 300:29:50.747 : en:Chapter 400:38:48.034 : en:Chapter 500:48:45.047 : en:Chapter 600:57:49.424 : en:Chapter 701:06:05.253 : en:Chapter 801:16:24.205 : en:Chapter 901:25:56.151 : en:Chapter 1001:32:57.322 : en:Chapter 11

    Скриншоты

    Скриншот с названием мультфильма
    --BDRip-AVC


    Source Blu-Ray

    Релиз от групп | and |-Данный релиз не будет воспроизводиться на бытовых плеерах не поддерживающих MKV и H.264Обсуждение релизов в AVC формате || Свежие AVC рипы
    Скачать .torrent

    Скачать торрент-файл бесплатно и на максимальной скорости!

    Как скачивать? · Что такое торрент? · Рейтинг и ограничения

    !ВНИМАНИЕ!
    Сайт не распространяет и не хранит электронные версии произведений, а занимается лишь лишь предоставлением доступа к создаваемому пользователями каталогу ссылок на торрент-файлы, которые содержат только списки хеш-сумм, убедительная просьба с жалобами обращаться напрямую к пользователю. Файлы для обмена на трекере предоставлены пользователями сайта, и администрация не несёт ответственности за их содержание. Просьба не заливать файлы, защищенные авторскими правами, а также файлы нелегального содержания!


    _________________
    [Профиль] [ЛС]
    Показать сообщения:    
    Ответить на тему

    Текущее время: Сегодня, в 10:01

    Часовой пояс: GMT + 2



    Вы не можете начинать темы
    Вы не можете отвечать на сообщения
    Вы не можете редактировать свои сообщения
    Вы не можете удалять свои сообщения
    Вы не можете голосовать в опросах
    Вы не можете прикреплять файлы к сообщениям
    Вы не можете скачивать файлы