BitTorrentTracker PerecTracker.org
BitTorrentTracker PerecTracker.org
    
Регистрация  ·  Вход
 
 · 
Забыли пароль?

  • Джеймс и гигантский персик / James and the Giant Peach (Генри Селик / Henry Selick) [1996, мультфильм, мюзикл, фэнтези, приключения, семейный, BDRip] AVO (Санаев)

    Ответить на тему
     
    Автор Сообщение

    rechyn

    Создавать темы 08-Дек-2015 23:08

           

    [Цитировать]

    Джеймс и гигантский персик / James and the Giant Peach
    Страна: США, Великобритания
    Жанр: мультфильм, мюзикл, фэнтези, приключения, семейный
    Продолжительность: 01:19:25
    Год выпуска: 1996
    Перевод: Авторский (одноголосый закадровый) Павел Санаев
    Русские субтитры: нет
    Режиссёр: Генри Селик / Henry Selick
    Роли озвучивали: Саймон Кэллоу, Ричард Дрейфусс, Джейн Ливз, Джоанна Ламли, Мириам Марголис, Пит Постлетуэйт, Сьюзен Сарандон, Пол Терри, Дэвид Тьюлис, Дж. Стефен Койл, Майк Старр
    Описание: Однажды маленький Джеймс спасает жизнь паука. В благодарность тот дарит мальчику волшебное зелье, из-за которого небольшой персик неожиданно вырастает в гигантский фрукт.
    Внутри него скрывается целый мир. Возможно, там Джеймса ждут настоящие друзья, которые помогут осуществить его самые заветные мечты…

    Качество: BDRip спасибо sgu-ltg
    Формат: AVI
    Видео: Xvid, 720x432 (1.67:1), 23.976 fps, XviD build 63 ~1106 kbps avg, 0.15 bit/pixel
    Аудио: АС3, 48 kHz, AC3 Dolby Digital, 2/0 (L,R) ch, ~192 kbps за Санаева спасибо d_rocker
    Субтитры: отсутствуют

    Подробные технические данные

    Полное имя : Dzhejms.i.gigantskij.persik.1996.BDRip.aviФормат : AVIФормат/Информация : Audio Video InterleaveРазмер файла : 743 МбайтПродолжительность : 1 ч. 19 м.Общий поток : 1308 Кбит/секПрограмма кодирования : VirtualDubMod 1.5.10.2 (build 2540/release)Библиотека кодирования : VirtualDubMod build 2540/releaseВидеоИдентификатор : 0Формат : MPEG-4 VisualПрофиль формата : Advanced Simple@L5Параметр BVOP формата : 2Параметр QPel формата : НетПараметр GMC формата : Без точки переходаПараметр матрицы формата : ВыборочнаяИдентификатор кодека : XVIDИдентификатор кодека/Подсказка : XviDПродолжительность : 1 ч. 19 м.Битрейт : 1106 Кбит/секШирина : 720 пикселейВысота : 432 пикселяСоотношение сторон : 1,667Частота кадров : 23,976 кадра/секЦветовое пространство : YUVСубдискретизация насыщенности : 4:2:0Битовая глубина : 8 битТип развёртки : ПрогрессивнаяМетод сжатия : С потерямиБит/(Пиксели*Кадры) : 0.148Размер потока : 628 Мбайт (85%)Библиотека кодирования : XviD 63АудиоИдентификатор : 1Формат : AC-3Формат/Информация : Audio Coding 3Расширение режима : CM (complete main)Параметр Endianness формата : BigИдентификатор кодека : 2000Продолжительность : 1 ч. 19 м.Вид битрейта : ПостоянныйБитрейт : 192 Кбит/секКаналы : 2 каналаРасположение каналов : Front: L RЧастота : 48,0 КГцБитовая глубина : 16 битМетод сжатия : С потерямиРазмер потока : 109 Мбайт (15%)Выравнивание : Разделение по промежуткамПродолжительность промежутка : 42 мс. (1,00 видеокадр)Время предзагрузки промежутка : 500 мс.

    Скриншоты

    Скачать .torrent

    Скачать торрент-файл бесплатно и на максимальной скорости!

    Как скачивать? · Что такое торрент? · Рейтинг и ограничения

    !ВНИМАНИЕ!
    Сайт не распространяет и не хранит электронные версии произведений, а занимается лишь лишь предоставлением доступа к создаваемому пользователями каталогу ссылок на торрент-файлы, которые содержат только списки хеш-сумм, убедительная просьба с жалобами обращаться напрямую к пользователю. Файлы для обмена на трекере предоставлены пользователями сайта, и администрация не несёт ответственности за их содержание. Просьба не заливать файлы, защищенные авторскими правами, а также файлы нелегального содержания!


    _________________
    [Профиль] [ЛС]
    Показать сообщения:    
    Ответить на тему

    Текущее время: Сегодня, в 02:28

    Часовой пояс: GMT + 2



    Вы не можете начинать темы
    Вы не можете отвечать на сообщения
    Вы не можете редактировать свои сообщения
    Вы не можете удалять свои сообщения
    Вы не можете голосовать в опросах
    Вы не можете прикреплять файлы к сообщениям
    Вы не можете скачивать файлы