Register  ·  Log in
Forgot password?

  • Ким Пять-с-плюсом: Подумаешь, трагедия / Kim Possible: So the Drama (Стив Лотер / Steve Loter) [2005, мультфильм, фантастика, фэнтези, WEB-DLRip] Dub

    Reply to topic
    Author Message


    Post 09-Dec-2015 00:08



    Ким Пять-с-плюсом: Подумаешь, трагедия / Kim Possible: So the Drama«The adventure of their lives. A movie that changes everything»-Страна: США
    Жанр: мультфильм, фантастика, фэнтези, боевик, комедия, приключения, семейный
    Год выпуска: 2005
    Продолжительность: 01:05:07
    Перевод: Профессиональный (полное дублирование)
    Русские субтитры: Нет-Режиссер: Стив Лотер / Steve Loter-Роли озвучивали: Кристи Карлсон Романо (Kim Possible, озвучка), Уилл Фридел (Ron Stoppable, озвучка), Нэнси Картрайт (Rufus, озвучка), Таж Моури (Wade, озвучка), Дидрих Бадер (Lars, озвучка), Рэйвен (Monique, озвучка), Джин Смарт (Dr. Ann Possible, озвучка), Кирстен Стормс (Bonnie Rockwaller, озвучка), Райдер Стронг (Brick Flagg, озвучка), Николь Салливан (Shego, озвучка), Эйприл Уинчелл (Reporter, озвучка), Гэри Коул (Dr. Possible (Dad), озвучка)-Описание: Юная спасительница мира Ким «Пять-с-плюсом» сталкивается с величайшей проблемой своей жизни - с выбором. И на этот раз в любом случае изменится все.-Рейтинг:
    -Мировая премьера: 8 апреля 2005-Релиз: -Качество: WEB-DLRip
    Формат: AVI
    Видео: 720x400 (1.80:1), 25 fps, XviD build 65 ~1459 kbps avg, 0.20 bit/pixel
    Аудио: 48 kHz, MPEG Layer 3, 2 ch, ~128.00 kbps avg
    Субтитры: Отсутствуют-


    Complete name : C:\Users\Pc\Desktop\Kim.Possible.So.the.Drama.avi
    Format : AVI
    Format/Info : Audio Video Interleave
    File size : 744 MiB
    Duration : 1h 5mn
    Overall bit rate : 1 597 Kbps
    Writing application : VirtualDubMod | || (build 2550/release)
    Writing library : VirtualDubMod build 2550/release
    ID : 0
    Format : MPEG-4 Visual
    Format profile : Advanced Simple@L5
    Format settings, BVOP : 2
    Format settings, QPel : No
    Format settings, GMC : No warppoints
    Format settings, Matrix : Custom
    Codec ID : XVID
    Codec ID/Hint : XviD
    Duration : 1h 5mn
    Bit rate : 1 459 Kbps
    Width : 720 pixels
    Height : 400 pixels
    Display aspect ratio : 16:9
    Frame rate : 25.000 fps
    Color space : YUV
    Chroma subsampling : 4:2:0
    Bit depth : 8 bits
    Scan type : Progressive
    Compression mode : Lossy
    Bits/(Pixel*Frame) : 0.203
    Stream size : 680 MiB (91%)
    Writing library : XviD 65
    ID : 1
    Format : MPEG Audio
    Format version : Version 1
    Format profile : Layer 3
    Codec ID : 55
    Codec ID/Hint : MP3
    Duration : 1h 5mn
    Bit rate mode : Constant
    Bit rate : 128 Kbps
    Channel(s) : 2 channels
    Sampling rate : 48.0 KHz
    Compression mode : Lossy
    Stream size : 59.6 MiB (8%)
    Alignment : Aligned on interleaves
    Interleave, duration : 40 ms (1.00 video frame)
    Interleave, preload duration : 504 ms
    Writing library : LAME3.99r
    Encoding settings : -m s -V 4 -q 2 -lowpass 17 -b 128
    Все раздачи мультфильма!
    Download .torrent

    Download free and at maximum speed!

    How to Download? · What is a torrent? · Ratings and Limitations

    The site does not extend and does not store electronic(digital) versions of products, and only gives access to a reference catalogue created by users on torrent-files which contain only lists of the hash-sums, the earnest entreaty, with complaints(abuse) to access directly to the user. Files for an exchange on tracker are given by users of a site, and the administration does not bear the responsibility for their maintenance. The request to not fill in the files protected by copyrights, and also files of the illegal maintenance!

    [Profile] [PM]
    Display posts from previous:    
    Reply to topic

    The time now is: Today 04:41

    All times are GMT + 3 Hours

    You cannot post new topics in this forum
    You cannot reply to topics in this forum
    You cannot edit your posts in this forum
    You cannot delete your posts in this forum
    You cannot vote in polls in this forum
    You cannot attach files in this forum
    You cannot download files in this forum