BitTorrentTracker PerecTracker.org
BitTorrentTracker PerecTracker.org
    
Регистрация  ·  Вход
 
 · 
Забыли пароль?

  • Тарзан / Tarzan (Райнхард Клоосс / Reinhard Klooss) [2013 г., Германия, мультфильм, семейный, приключения, HDRip] Dub

    Ответить на тему
     
    Автор Сообщение

    rechyn

    Создавать темы 08-Дек-2015 23:08

           

    [Цитировать]

    -Тарзан / Tarzan«Стань свидетелем возрождения легенды»--Год выпуска: 2013Страна: ГерманияЖанр: мультфильм, семейный, приключения-Продолжительность: 01:34:11Перевод: Профессиональный (дублированный)Субтитры: нет--Режиссер:Райнхард Клоосс / Reinhard Klooss-Роли озвучивали:Латс, Джейми Рэй Ньюман, Спенсер Лок, Роберт Капрон, Марк Деклин, Брайан Хаски, Тревор Ст. Джон, Крэйг Гарнер, Крис Фрайс, Эдд Осмонд-Описание:
    Новая современная адаптация легендарного героя: в центре Африки, Джон Грейсток обнаруживает метеорит, который является источником колоссальной энергии. Пытаясь забрать образец, он провоцирует бедствие, в котором выживает лишь единственный его сын в возрасте четырех лет, Tarzan. Потерянный в середине джунглей, он подобран и выращен гориллами. Они обучили его выживанию в суровых условиях. Повзрослевший Тарзан и Джейн Портер сталкиваются с наемной армией, посланной злым управляющим Greystoke Energies, человеком, который принял компанию от родителей Тарзана, после того, как они погибли в авиакатастрофе.
    --Дополнительная информация:-
    -Сэмпл №1 Сэмпл №2 Рип совместим с бытовыми DVD-проигрывателями.--Качество видео: HDRip (Исходник: Tarzan.2013.RUS.BDRip.720p.-HELLYWOOD )
    Формат видео: AVI
    Видео: XviD build 73, 688x288 (2.39:1), 23.976 fps, ~974 kbps, 0.205 bit/pixel
    Аудио: MPEG Layer 3, 2 ch, 48 kHz, 128.00 kbps avg (Dub)-Скриншоты

    Скриншот с названием



    MediaInfo

    General
    Complete name : \Tarzan_(2013).HDRip.XviD.Dub_[All.Films][RG].avi
    Format : AVI
    Format/Info : Audio Video Interleave
    File size : 749 MiB
    Duration : 1h 34mn
    Overall bit rate : 1 111 Kbps
    Movie name : Тарзан / Tarzan (2013) HDRip | [All.Films][RG]
    Director : <VIRUS> | [perectracker.org]
    Writing application : VirtualDubMod 1.5.10.3 | www.virtualdub-fr.org || (build 2550/release)
    Video
    ID : 0
    Format : MPEG-4 Visual
    Format profile : Advanced Simple@L5
    Format settings, BVOP : 2
    Format settings, QPel : No
    Format settings, GMC : No warppoints
    Format settings, Matrix : Custom
    Codec ID : XVID
    Codec ID/Hint : XviD
    Duration : 1h 34mn
    Bit rate : 974 Kbps
    Width : 688 pixels
    Height : 288 pixels
    Display aspect ratio : 2.40:1
    Frame rate : 23.976 fps
    Color space : YUV
    Chroma subsampling : 4:2:0
    Bit depth : 8 bits
    Scan type : Progressive
    Compression mode : Lossy
    Bits/(Pixel*Frame) : 0.205
    Stream size : 656 MiB (88%)
    Writing library : XviD 73
    Audio
    ID : 1
    Format : MPEG Audio
    Format version : Version 1
    Format profile : Layer 3
    Codec ID : 55
    Codec ID/Hint : MP3
    Duration : 1h 34mn
    Bit rate mode : Constant
    Bit rate : 128 Kbps
    Channel(s) : 2 channels
    Sampling rate : 48.0 KHz
    Compression mode : Lossy
    Stream size : 86.2 MiB (12%)
    Alignment : Aligned on interleaves
    Interleave, duration : 42 ms (1.00 video frame)
    Interleave, preload duration : 504 ms
    Writing library : LAME3.99r
    Encoding settings : -m s -V 4 -q 0 -lowpass 17 -b 128
    Скачать .torrent

    Скачать торрент-файл бесплатно и на максимальной скорости!

    Как скачивать? · Что такое торрент? · Рейтинг и ограничения

    !ВНИМАНИЕ!
    Сайт не распространяет и не хранит электронные версии произведений, а занимается лишь лишь предоставлением доступа к создаваемому пользователями каталогу ссылок на торрент-файлы, которые содержат только списки хеш-сумм, убедительная просьба с жалобами обращаться напрямую к пользователю. Файлы для обмена на трекере предоставлены пользователями сайта, и администрация не несёт ответственности за их содержание. Просьба не заливать файлы, защищенные авторскими правами, а также файлы нелегального содержания!


    _________________
    [Профиль] [ЛС]
    Показать сообщения:    
    Ответить на тему

    Текущее время: Сегодня, в 02:34

    Часовой пояс: GMT + 2



    Вы не можете начинать темы
    Вы не можете отвечать на сообщения
    Вы не можете редактировать свои сообщения
    Вы не можете удалять свои сообщения
    Вы не можете голосовать в опросах
    Вы не можете прикреплять файлы к сообщениям
    Вы не можете скачивать файлы