BitTorrentTracker PerecTracker.org
BitTorrentTracker PerecTracker.org
    
Регистрация  ·  Вход
 
 · 
Забыли пароль?

  • Первый дурень на свете и летучий корабль / Летучий корабль / The Fool of the World and the Flying Ship (Фрэнсис Воус / Francis Vose) [1990, Сказка, DVDRip] VO (Max Nabokov)

    Ответить на тему
     
    Автор Сообщение

    rechyn

    Создавать темы 08-Дек-2015 23:08

           

    [Цитировать]

    Первый дурень на свете и летучий корабль / Летучий корабль / The Fool of the World and the Flying Ship
    Страна: Великобритания
    Жанр: Сказка
    Продолжительность: 00:54:23
    Год выпуска: 1990
    Перевод: Одноголосый закадровый (Max Nabokov)
    Русские субтитры: нет
    Режиссёр: Фрэнсис Воус / Francis Vose
    Роли озвучивали: Робин Бэйли, Морис Денэм, Джимми Хибберт, Мартин Джарвис, Эдвард Келси, Мириам Маргулис, Алан Ротуэлл, Дэвид Суше, Барбара Уилшир, Barbarah Wilshire...
    Описание: Сказка "Летучий корабль" - это история о том, как человек движется к своей цели, попутно помогая другим людям. Сказка о взаимопомощи и развитие личности, через эту помощь - ведь в конце сказки "летучий корабль", наш "дурень" становится всеми любимым красным молодцем.
    Семпл: http://multi-up.com/982806
    Качество: DVDRip (автор рипа - анвад)
    Формат: AVI
    Видео: 720x544 (4:3), 25.000 fps, XviD build 65 ~1697 kbps avg, 0.18 bit/pixel
    Аудио: 48 kHz, AC3 Dolby Digital, 2/0 (L,R) ch, ~192.00 kbps avg (рус)
    Аудио: 48 kHz, AC3 Dolby Digital, 2/0 (L,R) ch, ~192.00 kbps avg (анг. отдельным файлом)
    Субтитры: отсутствуют

    Подробные технические данные

    GeneralComplete name : D:\МУЛЬТФИЛЬМЫ\The Fool of the World and the Flying Ship 1990.aviFormat : AVIFormat/Info : Audio Video InterleaveFile size : 747 MiBDuration : 54mn 23sOverall bit rate : 1 920 KbpsWriting application : VirtualDubMod 1.5.10.2 (build 2542/release)Writing library : VirtualDubMod build 2542/release
    VideoID : 0Format : MPEG-4 VisualFormat profile : Advanced Simple@L5Format settings, BVOP : YesFormat settings, QPel : NoFormat settings, GMC : No warppointsFormat settings, Matrix : CustomCodec ID : XVIDCodec ID/Hint : XviDDuration : 54mn 23sBit rate : 1 718 KbpsWidth : 720 pixelsHeight : 544 pixelsDisplay aspect ratio : 4:3Frame rate : 25.000 fpsColor space : YUVChroma subsampling : 4:2:0Bit depth : 8 bitsScan type : ProgressiveCompression mode : LossyBits/(Pixel*Frame) : 0.175Stream size : 668 MiB (89%)Writing library : XviD 65
    AudioID : 1Format : AC-3Format/Info : Audio Coding 3Mode extension : CM (complete main)Format settings, Endianness : BigCodec ID : 2000Duration : 54mn 23sBit rate mode : ConstantBit rate : 192 KbpsChannel(s) : 2 channelsChannel positions : Front: L RSampling rate : 48.0 KHzBit depth : 16 bitsCompression mode : LossyStream size : 74.7 MiB (10%)Alignment : Split accross interleavesInterleave, duration : 40 ms (1.00 video frame)Interleave, preload duration : 500 ms
    Audio# 2ID : 1Format : AC-3Format/Info : Audio Coding 3Mode extension : CM (complete main)Format settings, Endianness : BigCodec ID : 2000Duration : 54mn 22sBit rate mode : ConstantBit rate : 192 KbpsChannel(s) : 2 channelsChannel positions : Front: L RSampling rate : 48.0 KHzBit depth : 16 bitsCompression mode : LossyDelay relative to video : 27msStream size : 74.7 MiB (10%)Alignment : Split accross interleavesInterleave, duration : 40 ms (1.00 video frame)Interleave, preload duration : 500 ms

    Скриншоты

    Скачать .torrent

    Скачать торрент-файл бесплатно и на максимальной скорости!

    Как скачивать? · Что такое торрент? · Рейтинг и ограничения

    !ВНИМАНИЕ!
    Сайт не распространяет и не хранит электронные версии произведений, а занимается лишь лишь предоставлением доступа к создаваемому пользователями каталогу ссылок на торрент-файлы, которые содержат только списки хеш-сумм, убедительная просьба с жалобами обращаться напрямую к пользователю. Файлы для обмена на трекере предоставлены пользователями сайта, и администрация не несёт ответственности за их содержание. Просьба не заливать файлы, защищенные авторскими правами, а также файлы нелегального содержания!


    _________________
    [Профиль] [ЛС]
    Показать сообщения:    
    Ответить на тему

    Текущее время: Сегодня, в 04:06

    Часовой пояс: GMT + 2



    Вы не можете начинать темы
    Вы не можете отвечать на сообщения
    Вы не можете редактировать свои сообщения
    Вы не можете удалять свои сообщения
    Вы не можете голосовать в опросах
    Вы не можете прикреплять файлы к сообщениям
    Вы не можете скачивать файлы