BitTorrentTracker PerecTracker.org
BitTorrentTracker PerecTracker.org
    
Регистрация  ·  Вход
 
 · 
Забыли пароль?

  • Счастливчик Люк: Баллада о Долтонах / Lucky Luke: La ballade des Dalton (Рене Госинни, Генри Грюель, Моррис / Rene Goscinny, Henri Gruel, Morris) [1978, мультфильм, BDRip] 2 x AVO (Дубровин, Визгунов)

    Ответить на тему
     
    Автор Сообщение

    rechyn

    Создавать темы 08-Дек-2015 23:08

           

    [Цитировать]

    Счастливчик Люк: Баллада о Долтонах / Lucky Luke: La ballade des Dalton-Страна: Франция
    Жанр: мультфильм
    Продолжительность: 01:19:27
    Год выпуска: 1978
    Перевод #1: Авторский (одноголосый закадровый) Владимир Дубровин VHS [перевод с итальянского]
    Перевод #2: Авторский (одноголосый закадровый) Сергей Визгунов [перевод с английского]
    Русские субтитры: нет-Режиссеры: Рене Госинни, Генри Грюель, Моррис / René Goscinny, Henri Gruel, Morris
    Роли озвучивали: Роже Карель, Жорж Атлас, Даниэль Секкальди, Жак Балютен, Ксавье Депра, Жак Дешам, Жизель Грим, Мишель Елиас, Бернард Хэллер, Жак Фаббри...- | Совместный релиз:
    и -Описание: Уже знакомые вам по первой серии братья Долтоны, осужденные в общей сложности на 4200 лет тюрьмы, так и не успокоились. Если горбатого хоть могила исправит, то Долтоны неисправимы. Четверо преступников бегут из тюрьмы за местью и наследством. Уж теперь-то праздник и на их улице. Но не тут-то было! Счастливчик Люк — лучший шериф Дикого Запада, самый меткий стрелок и гроза всех окрестных бандитов — снова стоит у Долтонов на пути. Чем опаснее, тем и веселее! Кто сказал, что настоящие ковбои никогда не снимались в мультфильмах?!-Качество: BDRip [Исходник Blu-ray Disc (Custom) 1080i]
    Формат: AVI
    Видео: 720x400 (1.80:1), 25 fps, XviD build 65 ~2237 kbps avg, 0.31 bit/pixel
    Аудио #1: Русский, 48.0 KHz, AC3, 2 ch, 192 kbps - Одноголосый закадровый | Владимир Дубровин [VHS]
    Аудио #2: Русский, 48.0 KHz, AC3, 2 ch, 192 kbps - Одноголосый закадровый | Сергей Визгунов

    Благодарности

    • За исходный blu-ray диск спасибо foxlight!
    • За перевод Владимира Дубровина спасибо dr_akula!
    • За перевод Сергея Визгунова спасибо pacolucia.
    Огромная благодарность GVR232 за исходники!

    MediaInfo

    GeneralComplete name : Lucky.Luke_La.ballade.des.Dalton_1978_Olu6ka.aviFormat : AVIFormat/Info : Audio Video InterleaveFile size : 1.46 GiBDuration : 1h 19mnOverall bit rate : 2 637 KbpsWriting application : VirtualDubModRus 1.5.10.2 (build 2542/release)Writing library : VirtualDubMod build 2542/release
    VideoID : 0Format : MPEG-4 VisualFormat profile : Advanced Simple@L5Format settings, BVOP : 1Format settings, QPel : NoFormat settings, GMC : No warppointsFormat settings, Matrix : CustomCodec ID : XVIDCodec ID/Hint : XviDDuration : 1h 19mnBit rate : 2 239 KbpsWidth : 720 pixelsHeight : 400 pixelsDisplay aspect ratio : 16:9Frame rate : 25.000 fpsColor space : YUVChroma subsampling : 4:2:0Bit depth : 8 bitsScan type : ProgressiveCompression mode : LossyBits/(Pixel*Frame) : 0.311Stream size : 1.24 GiB (85%)Writing library : XviD 65
    Audio #1ID : 1Format : AC-3Format/Info : Audio Coding 3Mode extension : CM (complete main)Format settings, Endianness : BigCodec ID : 2000Duration : 1h 19mnBit rate mode : ConstantBit rate : 192 KbpsChannel count : 2 channelsChannel positions : Front: L RSampling rate : 48.0 KHzBit depth : 16 bitsCompression mode : LossyStream size : 109 MiB (7%)Alignment : Split accross interleavesInterleave, duration : 40 ms (1.00 video frame)Interleave, preload duration : 500 ms
    Audio #2ID : 2Format : AC-3Format/Info : Audio Coding 3Mode extension : CM (complete main)Format settings, Endianness : BigCodec ID : 2000Duration : 1h 19mnBit rate mode : ConstantBit rate : 192 KbpsChannel count : 2 channelsChannel positions : Front: L RSampling rate : 48.0 KHzBit depth : 16 bitsCompression mode : LossyStream size : 109 MiB (7%)Alignment : Split accross interleavesInterleave, duration : 40 ms (1.00 video frame)Interleave, preload duration : 500 ms

    Скриншоты

    Раздача от группы
    Скачать .torrent

    Скачать торрент-файл бесплатно и на максимальной скорости!

    Как скачивать? · Что такое торрент? · Рейтинг и ограничения

    !ВНИМАНИЕ!
    Сайт не распространяет и не хранит электронные версии произведений, а занимается лишь лишь предоставлением доступа к создаваемому пользователями каталогу ссылок на торрент-файлы, которые содержат только списки хеш-сумм, убедительная просьба с жалобами обращаться напрямую к пользователю. Файлы для обмена на трекере предоставлены пользователями сайта, и администрация не несёт ответственности за их содержание. Просьба не заливать файлы, защищенные авторскими правами, а также файлы нелегального содержания!


    _________________
    [Профиль] [ЛС]
    Показать сообщения:    
    Ответить на тему

    Текущее время: Сегодня, в 20:34

    Часовой пояс: GMT + 2



    Вы не можете начинать темы
    Вы не можете отвечать на сообщения
    Вы не можете редактировать свои сообщения
    Вы не можете удалять свои сообщения
    Вы не можете голосовать в опросах
    Вы не можете прикреплять файлы к сообщениям
    Вы не можете скачивать файлы