BitTorrentTracker PerecTracker.org
BitTorrentTracker PerecTracker.org
    
Регистрация  ·  Вход
 
 · 
Забыли пароль?

  • Принцесса Лилифи в стране единорогов / Prinzessin Lillifee und das kleine Einhorn (Хьюберт Вейланд, Ансгар Нибур / Hubert Weiland, Ansgar Niebuhr) [2011, Мультфильм, полнометражный, HDRip] Dub

    Ответить на тему
     
    Автор Сообщение

    rechyn

    Создавать темы 08-Дек-2015 23:08

           

    [Цитировать]

    Принцесса Лилифи в стране единорогов / Prinzessin Lillifee und das kleine Einhorn
    Страна: Германия, Франция
    Студия: Caligari Film- und Fernsehproduktions GmbH, Millimages, Universum Film (UFA), Westdeutscher Rundfunk (WDR), WunderWerk
    Жанр: Мультфильм, полнометражный
    Продолжительность: 01:12:10
    Год выпуска: 2011
    Перевод: Профессиональный (дублированный)
    Русские субтитры: нет
    Режиссёр: Хьюберт Вейланд, Ансгар Нибур / Hubert Weiland, Ansgar Niebuhr
    Описание: В волшебном Розовом королевстве Лиллифи и ее друзья наслаждаются теплым летом. Однажды ночью принцесса видит странный сон, в котором единорог Розали просит ее присмотреть за своей маленькой дочерью — Люси. Проснувшись, Лиллифи с удивлением обнаруживает, что Люси чудесным образом оказалась на кровати принцессы. Но что же произошло с Розали? Лиллифи решает оправить Люси обратно к маме. Для того чтобы найти маму-единорога, принцесса оправляется в соседнее Синее королевство. Когда друзья прибывают туда, они узнают, что на эти земли было наложено ужасное заклятие: в середине лета здесь стоят морозы, и все покрыто льдом и снегом. Оказывается, это коварный принц заморозил прекрасную страну в глубокий зимний сон. Это он похитил родителей Люси и заточил их в ледяные оковы, и застывший лед может быть расплавлен только чудесной силой единорогов. Теперь Люси — единственная надежда страны единорогов. Вместе с принцессой Лиллифи она приложит все усилия для того, чтобы попытается освободить прекрасную страну от ужасного проклятия...
    Семпл: http://sendfile.su/999440
    Качество: HDRip
    Формат: AVI
    Видео: Xvid, 720x400, 24 fps, 2 056 Kbps
    Аудио #1: Русский, AC3, 2 ch, 48 kHz, 192 kbps - Дубляж
    Аудио #2: Немецкий, AC3, 6 ch, 48 kHz, 448 kbps
    Субтитры: отсутствуют

    Подробные технические данные

    C:\RARY\Princessa.Lifi.2.2011.D.HDRip.1400MB.avi General Complete name : C:\RARY\Princessa.Lifi.2.2011.D.HDRip.1400MB.avi Format : AVI Format/Info : Audio Video Interleave File size : 1.37 GiB Duration : 1h 12mn Overall bit rate : 2 710 Kbps Writing application : VirtualDubMod 1.5.10.2 (build 2540/release) Writing library : VirtualDubMod build 2540/release Video #0 ID : 0 Format : MPEG-4 Visual Format profile : Advanced Simple@L5 Format settings, BVOP : Yes Format settings, QPel : No Format settings, GMC : No warppoints Format settings, Matrix : Default (MPEG) Codec ID : XVID Codec ID/Hint : XviD Duration : 1h 12mn Bit rate : 2 056 Kbps Width : 720 pixels Height : 400 pixels Display aspect ratio : 16:9 Frame rate : 24.000 fps Color space : YUV Chroma subsampling : 4:2:0 Bit depth : 8 bits Scan type : Progressive Bits/(Pixel*Frame) : 0.297 Stream size : 1.04 GiB (76%) Writing library : XviD 1.2.1 (UTC 2008-12-04) Audio #1 ID : 1 Format : AC-3 Format/Info : Audio Coding 3 Mode extension : CM (complete main) Codec ID : 2000 Duration : 1h 12mn Bit rate mode : Constant Bit rate : 192 Kbps Channel(s) : 2 channels Channel positions : Front: L R Sampling rate : 48.0 KHz Bit depth : 16 bits Stream size : 99.3 MiB (7%) Alignment : Split accross interleaves Interleave, duration : 42 ms (1.00 video frame) Interleave, preload duration : 500 ms Audio #2 ID : 2 Format : AC-3 Format/Info : Audio Coding 3 Mode extension : CM (complete main) Codec ID : 2000 Duration : 1h 12mn Bit rate mode : Constant Bit rate : 448 Kbps Channel(s) : 6 channels Channel positions : Front: L C R, Side: L R, LFE Sampling rate : 48.0 KHz Bit depth : 16 bits Stream size : 232 MiB (17%) Alignment : Split accross interleaves Interleave, duration : 42 ms (1.00 video frame) Interleave, preload duration : 500 ms

    Скриншоты


    Скачать .torrent

    Скачать торрент-файл бесплатно и на максимальной скорости!

    Как скачивать? · Что такое торрент? · Рейтинг и ограничения

    !ВНИМАНИЕ!
    Сайт не распространяет и не хранит электронные версии произведений, а занимается лишь лишь предоставлением доступа к создаваемому пользователями каталогу ссылок на торрент-файлы, которые содержат только списки хеш-сумм, убедительная просьба с жалобами обращаться напрямую к пользователю. Файлы для обмена на трекере предоставлены пользователями сайта, и администрация не несёт ответственности за их содержание. Просьба не заливать файлы, защищенные авторскими правами, а также файлы нелегального содержания!


    _________________
    [Профиль] [ЛС]
    Показать сообщения:    
    Ответить на тему

    Текущее время: Сегодня, в 23:17

    Часовой пояс: GMT + 2



    Вы не можете начинать темы
    Вы не можете отвечать на сообщения
    Вы не можете редактировать свои сообщения
    Вы не можете удалять свои сообщения
    Вы не можете голосовать в опросах
    Вы не можете прикреплять файлы к сообщениям
    Вы не можете скачивать файлы