BitTorrentTracker PerecTracker.org
BitTorrentTracker PerecTracker.org
    
Регистрация  ·  Вход
 
 · 
Забыли пароль?

  • Диджей iZ / Dj iZ (Andy Heyward / Энди Хейуорд, Michael Maliani / Майкл Мэлиэни)[2007, Мультфильм, SATRip] Dub

    Ответить на тему
     
    Автор Сообщение

    rechyn

    Создавать темы 08-Дек-2015 23:07

           

    [Цитировать]

    Диджей iZ / Dj iZ
    Страна: США
    Жанр: Мультфильм
    Продолжительность: 01:18:48
    Год выпуска: 2007
    Перевод: Профессиональный (полное дублирование)
    Русские субтитры: нет
    Продюсеры: Andy Heyward / Энди Хейуорд, Michael Maliani / Майкл Мэлиэни
    Описание: У одной семьи есть маленький робот по имени iZ. Загрузив все песни с радио, он превращается в помешанного диджея, а члены этой семьи - в рок звезд.
    Сэмпл: http://multi-up.com/985435
    Качество: SATRip
    Формат: AVI
    Видео: 640x480 (1.33:1), 25 fps, XviD MPEG-4 ~1794 kbps avg, 0.23 bit/pixel
    Аудио: 48 kHz, MPEG Layer 3, 1 ch, ~96.00 kbps avg
    Субтитры: отсутствуют

    Подробные технические данные

    ОбщееПолное имя : F:\Раритет\Диджей iZ.aviФормат : AVIФормат/Информация : Audio Video InterleaveРазмер файла : 1,05 ГбайтПродолжительность : 1 ч. 18 м.Общий поток : 1900 Кбит/секБиблиотека кодирования : VirtualDub build 30091/release
    ВидеоИдентификатор : 0Формат : MPEG-4 VisualПрофиль формата : Advanced Simple@L5Параметр BVOP формата : 2Параметр QPel формата : НетПараметр GMC формата : Без точки переходаПараметр матрицы формата : Default (MPEG)Режим смешивания : Сжатый битовый потокИдентификатор кодека : XVIDИдентификатор кодека/Подсказка : XviDПродолжительность : 1 ч. 18 м.Битрейт : 1794 Кбит/секШирина : 640 пикселейВысота : 480 пикселейСоотношение сторон : 4:3Частота кадров : 25,000 кадров/секЦветовое пространство : YUVСубдискретизация насыщенности : 4:2:0Битовая глубина : 8 битТип развёртки : ПрогрессивнаяМетод сжатия : С потерямиБит/(Пиксели*Кадры) : 0.234Размер потока : 1011 Мбайт (94%)Библиотека кодирования : XviD 64
    АудиоИдентификатор : 1Формат : MPEG AudioВерсия формата : Version 1Профиль формата : Layer 3Идентификатор кодека : 55Идентификатор кодека/Подсказка : MP3Продолжительность : 1 ч. 18 м.Вид битрейта : ПостоянныйБитрейт : 96,0 Кбит/секКаналы : 1 каналЧастота : 48,0 КГцМетод сжатия : С потерямиРазмер потока : 54,1 Мбайт (5%)Выравнивание : Разделение по промежуткамПродолжительность промежутка : 40 мс. (1,00 видеокадр)Время предзагрузки промежутка : 500 мс.

    Скриншоты

    Скачать .torrent

    Скачать торрент-файл бесплатно и на максимальной скорости!

    Как скачивать? · Что такое торрент? · Рейтинг и ограничения

    !ВНИМАНИЕ!
    Сайт не распространяет и не хранит электронные версии произведений, а занимается лишь лишь предоставлением доступа к создаваемому пользователями каталогу ссылок на торрент-файлы, которые содержат только списки хеш-сумм, убедительная просьба с жалобами обращаться напрямую к пользователю. Файлы для обмена на трекере предоставлены пользователями сайта, и администрация не несёт ответственности за их содержание. Просьба не заливать файлы, защищенные авторскими правами, а также файлы нелегального содержания!


    _________________
    [Профиль] [ЛС]
    Показать сообщения:    
    Ответить на тему

    Текущее время: Сегодня, в 16:17

    Часовой пояс: GMT + 2



    Вы не можете начинать темы
    Вы не можете отвечать на сообщения
    Вы не можете редактировать свои сообщения
    Вы не можете удалять свои сообщения
    Вы не можете голосовать в опросах
    Вы не можете прикреплять файлы к сообщениям
    Вы не можете скачивать файлы