BitTorrentTracker PerecTracker.org
BitTorrentTracker PerecTracker.org
    
Регистрация  ·  Вход
 
 · 
Забыли пароль?

  • Дюймовочка / Thumbelina (Дон Блат / Don Bluth, Гари Голдман / Gary Goldman) [1994, Анимационный, фэнтези, приключения, семейный, мультфильм, BDRip] Dub (Первый канал)

    Ответить на тему
     
    Автор Сообщение

    rechyn

    Создавать темы 08-Дек-2015 23:07

           

    [Цитировать]

    Дюймовочка / Thumbelina
    Страна: США, Ирландия
    Жанр: Анимационный, фэнтези, приключения, семейный, мультфильм
    Продолжительность: 01:26:32
    Год выпуска: 1994
    Перевод: Профессиональный (дублированный) по заказу Первого канала /озвученные песни
    Русские субтитры: нет-Режиссёр: Дон Блат / Don Bluth, Гари Голдман / Gary Goldman-Роли озвучивали: Джоди Бенсон / Jodi Benson (Thumbelina), Джино Конфорти / Gino Conforti (Jacquimo), Барбара Кук / Barbara Cook (Mother), Уилл Райан / Will Ryan (Hero / Reverend Rat), Джун Форэй / June Foray (Queen Tabitha), Кеннет Марс / Kenneth Mars (King Colbert), Гари Имхофф / Gary Imhoff (Prince Cornelius), Джо Линч / Joe Lynch (Grundel), Чаро / Charo (Mrs. Toad), Лорен Лестер / Loren Lester (Gringo), Гилберт Готтфрид / Gilbert Gottfried (Mr. Beetle), Кэрол Чэннинг / Carol Channing (Ms. Fieldmouse), Джон Хёрт / John Hurt (Mr. Mole)-Описание: Маленькая Дюймовочка - храбрая девочка, она не боится испытаний и опасных приключений, подстерегающих ее в большом мире. Дюймовочка не перестает попадать из огня да в полымя. После многих злоключений, потерявшаяся и одна-одинешенька Дюймовочка становится добычей мрачной мыши Моны, которая обещает ей кров и стол, если она выйдет замуж за затворника мистера Крота. Когда же настает день свадьбы Дюймовочка выходит замуж, но не за крота,... а за принца - и становится Принцессой!...-Благодарности:
    xfiles - звук
    анвад - видео
    *Sergeant_am* - синхронизация
    -Семпл: http://multi-up.com/985765-Качество: BDRip
    Формат: AVI-Видео: 704x384 (1.83:1), 23.976 fps, XviD build 65 ~2335 kbps avg, 0.36 bit/pixel
    Аудио: 48 kHz, AC3 Dolby Digital, 2/0 (L,R) ch, ~192.00 kbps avg
    Субтитры: отсутствуют

    Отчёт MediaInfo

    ОбщееПолное имя : C:\Дюймовочка 1994 (DUB - По заказу Первого канала).aviФормат : AVIФормат/Информация : Audio Video InterleaveРазмер файла : 1,55 ГбайтПродолжительность : 1 ч. 26 м.Общий поток : 2571 Кбит/секПрограмма кодирования : VirtualDubModRus 1.5.10.2 (build 2542/release)Библиотека кодирования : VirtualDubMod build 2542/release
    ВидеоИдентификатор : 0Формат : MPEG-4 VisualПрофиль формата : Advanced Simple@L5Параметр BVOP формата : 2Параметр QPel формата : НетПараметр GMC формата : Без точки переходаПараметр матрицы формата : ВыборочнаяИдентификатор кодека : XVIDИдентификатор кодека/Подсказка : XviDПродолжительность : 1 ч. 26 м.Битрейт : 2369 Кбит/секШирина : 704 пикселяВысота : 384 пикселяСоотношение сторон : 1,85:1Частота кадров : 23,976 кадра/секЦветовое пространство : YUVСубдискретизация насыщенности : 4:2:0Битовая глубина : 8 битТип развёртки : ПрогрессивнаяМетод сжатия : С потерямиБит/(Пиксели*Кадры) : 0.366Размер потока : 1,43 Гбайт (92%)Библиотека кодирования : XviD 65
    АудиоИдентификатор : 1Формат : AC-3Формат/Информация : Audio Coding 3Расширение режима : CM (complete main)Параметр Endianness формата : BigИдентификатор кодека : 2000Продолжительность : 1 ч. 26 м.Вид битрейта : ПостоянныйБитрейт : 192 Кбит/секКаналы : 2 каналаРасположение каналов : Front: L RЧастота : 48,0 КГцБитовая глубина : 16 битМетод сжатия : С потерямиРазмер потока : 119 Мбайт (7%)Выравнивание : Разделение по промежуткамПродолжительность промежутка : 42 мс. (1,00 видеокадр)Время предзагрузки промежутка : 500 мс.

    Скриншоты

    Скачать .torrent

    Скачать торрент-файл бесплатно и на максимальной скорости!

    Как скачивать? · Что такое торрент? · Рейтинг и ограничения

    !ВНИМАНИЕ!
    Сайт не распространяет и не хранит электронные версии произведений, а занимается лишь лишь предоставлением доступа к создаваемому пользователями каталогу ссылок на торрент-файлы, которые содержат только списки хеш-сумм, убедительная просьба с жалобами обращаться напрямую к пользователю. Файлы для обмена на трекере предоставлены пользователями сайта, и администрация не несёт ответственности за их содержание. Просьба не заливать файлы, защищенные авторскими правами, а также файлы нелегального содержания!


    _________________
    [Профиль] [ЛС]
    Показать сообщения:    
    Ответить на тему

    Текущее время: Сегодня, в 16:19

    Часовой пояс: GMT + 2



    Вы не можете начинать темы
    Вы не можете отвечать на сообщения
    Вы не можете редактировать свои сообщения
    Вы не можете удалять свои сообщения
    Вы не можете голосовать в опросах
    Вы не можете прикреплять файлы к сообщениям
    Вы не можете скачивать файлы