Register  ·  Log in
Forgot password?

  • Школа монстров: Побег с Острова черепов / Monster High: Escape from Skull Shores (Стив Болл / Steve Ball, Эндрю Дункан / Andrew Duncan) [2012, мультфильм, BDRip] Dub

    Reply to topic
    Author Message


    Post 09-Dec-2015 00:07



    Школа монстров: Побег с Острова черепов / Monster High: Escape from Skull Shores-Страна: США
    Жанр: мультфильм
    Год выпуска: 2012
    Продолжительность: 00:46:02
    Перевод: Профессиональный (полное дублирование)
    Русские субтитры: Нет-Режиссер: Стив Болл / Steve Ball, Эндрю Дункан / Andrew Duncan-Роли озвучивали: Лора Бэйли (Lagoona Blue), Оги Бэнкс (Clawd Wolf), Кэм Кларк (Heath Burns / Ghost), Мальколм Дэнар (Kipling), Деби Дерриберри (Draculaura), Эрин Фицджералд (Abbey Bominable / Spectra Vondergeist), Кейт Хиггинс (Frankie Stein), Jonathan Lipow (The Tikis), Джордж Ньюберн (Andy Beast), Оду Паден (Ghoulia Yelps / Manny Taur / Nightmare), Синди Робинсон (Jackson Jekyll / Holt Hyde / Operetta), Салли Саффиоти (Clawdeen Wolf / Cleo DeNile)-Описание: Девочки готовятся к самой КЛЫКассной вечеринке во время весенних каникул в Школе Монстров: Побег с Острова Черепов. Но вскоре их яхта терпит крушение на загадочном острове, где Фрэнки Штейн похищает чудовище... непонятно, кому же из них потребуется помощь!-Рейтинг: -Мировая премьера: 17 февраля 2012-Релиз: -Семпл-Качество: BDRip [MHCLAWESOME_G51_HDCLUB]
    Формат: AVI
    Видео: 704x400 (1.76:1), 23.976 fps, XviD build 65 ~1860 kbps avg, 0.28 bit/pixel
    Аудио: 48 kHz, AC3 Dolby Digital, 3/2 (L,C,R,l,r) + LFE ch, ~384 kbps
    Субтитры: Отсутствуют-


    Format : AVIFormat/Info : Audio Video InterleaveFile size : 742 MiBDuration : 46mn 2sOverall bit rate : 2 254 KbpsWriting application : VirtualDubMod | || (build 2550/release)Writing library : VirtualDubMod build 2550/release
    VideoID : 0Format : MPEG-4 VisualFormat profile : Advanced Simple@L5Format settings, BVOP : 2Format settings, QPel : NoFormat settings, GMC : No warppointsFormat settings, Matrix : CustomCodec ID : XVIDCodec ID/Hint : XviDDuration : 46mn 2sBit rate : 1 861 KbpsWidth : 704 pixelsHeight : 400 pixelsDisplay aspect ratio : 16:9Frame rate : 23.976 fpsColor space : YUVChroma subsampling : 4:2:0Bit depth : 8 bitsScan type : ProgressiveCompression mode : LossyBits/(Pixel*Frame) : 0.276Stream size : 613 MiB (83%)Writing library : XviD 65
    AudioID : 1Format : AC-3Format/Info : Audio Coding 3Mode extension : CM (complete main)Format settings, Endianness : BigCodec ID : 2000Duration : 46mn 2sBit rate mode : ConstantBit rate : 384 KbpsChannel(s) : 6 channelsChannel positions : Front: L C R, Side: L R, LFESampling rate : 48.0 KHzBit depth : 16 bitsCompression mode : LossyStream size : 126 MiB (17%)Alignment : Split accross interleavesInterleave, duration : 42 ms (1.00 video frame)Interleave, preload duration : 500 ms
    Все раздачи мультфильма!
    Download .torrent

    Download free and at maximum speed!

    How to Download? · What is a torrent? · Ratings and Limitations

    The site does not extend and does not store electronic(digital) versions of products, and only gives access to a reference catalogue created by users on torrent-files which contain only lists of the hash-sums, the earnest entreaty, with complaints(abuse) to access directly to the user. Files for an exchange on tracker are given by users of a site, and the administration does not bear the responsibility for their maintenance. The request to not fill in the files protected by copyrights, and also files of the illegal maintenance!

    [Profile] [PM]
    Display posts from previous:    
    Reply to topic

    The time now is: Today 18:52

    All times are GMT + 3 Hours

    You cannot post new topics in this forum
    You cannot reply to topics in this forum
    You cannot edit your posts in this forum
    You cannot delete your posts in this forum
    You cannot vote in polls in this forum
    You cannot attach files in this forum
    You cannot download files in this forum