BitTorrentTracker PerecTracker.org
BitTorrentTracker PerecTracker.org
    
Регистрация  ·  Вход
 
 · 
Забыли пароль?

  • Храбрая сердцем / Brave (Марк Эндрюс / Mark Andrews, Бренда Чепмен / Brenda Chapman) [2012, мультфильм, фэнтези, комедия, приключения, семейный, BDRip] [Локализованный видеоряд] Dub

    Ответить на тему
     
    Автор Сообщение

    rechyn

    Создавать темы 08-Дек-2015 23:07

           

    [Цитировать]

    Храбрая сердцем / Brave-Год выпуска: 2012
    Выпущено: США
    Жанр: мультфильм, фэнтези, комедия, приключения, семейный
    Продолжительность: 01:34:12
    Перевод: Профессиональный (полное дублирование) CEE
    Субтитры: нет-Режиссер: Марк Эндрюс / Mark Andrews, Бренда Чепмен / Brenda Chapman
    В ролях: Келли Макдоналд, Эмма Томпсон, Билли Коннолли, Джули Уолтерс, Робби Колтрейн, Кевин МакКидд, Крэйг Фергюсон, Сэлли Кингхорн, Эйлид Фрайзер, Пейджи Баркер
    О фильме: Испокон веков мифы и легенды окутывают загадочной пеленой живописные отроги Шотландских гор. Искусной лучнице Мериде приходится выбирать свой путь в жизни самостоятельно, и однажды она отказывается следовать древним традициям королевства, бросая вызов могущественным шотландским кланам и их предводителям: нескладному лорду МакГаффину, угрюмому лорду Макинтошу и сварливому лорду Дингволлу. Неосторожные поступки Мериды грозят повергнуть королевство в хаос, и тогда она отправляется за советом к эксцентричной отшельнице, которая вместо помощи накладывает на Мериду опасное заклятье. Юной принцессе предстоит полагаться только на собственную храбрость, чтобы преодолеть могущественное волшебство и победить самого страшного зверя из тех, что водятся в горных долинах.
    Релиз:
    Автор: sociolog_melvas
    Качество: BDRip (источник: DFCbit / BDRemux / 1080p)
    Формат: AVI
    Видео: 720x304 (2.37:1), 23,976 fps, XviD build 65 ~1749 kbps avg, 0.33 bit/pixel
    Аудио: 48 kHz, AC3 Dolby Digital, 3/2 (L,C,R,l,r) + LFE ch, ~448.00 kbps avg
    Размер: 1486.72 Mb (1/3 DVD-R)
    Скачать: Семпл-

    Кадры из фильма


    -

    Mi

    Формат : AVI
    Формат/Информация : Audio Video Interleave
    Размер файла : 1,45 Гбайт
    Продолжительность : 1 ч. 34 м.
    Общий поток : 2206 Кбит/сек
    Название фильма : Храбрая сердцем / Brave (2012) BDRip
    Режиссёр : sociolog_melvas
    Жанр : мультфильм, фэнтези, комедия
    Программа кодирования : VirtualDubMod 1.5.10.2 (build 2540/release)
    Примечание : 05.08.2014
    Видео
    Идентификатор : 0
    Формат : MPEG-4 Visual
    Профиль формата : Advanced Simple@L5
    Параметр BVOP формата : 1
    Параметр QPel формата : Нет
    Параметр GMC формата : Без точки перехода
    Параметр матрицы формата : Выборочная
    Идентификатор кодека : XVID
    Идентификатор кодека/Подсказка : XviD
    Продолжительность : 1 ч. 34 м.
    Битрейт : 1749 Кбит/сек
    Ширина : 720 пикселей
    Высота : 304 пикселя
    Соотношение сторон : 2,35:1
    Частота кадров : 23,976 кадра/сек
    Цветовое пространство : YUV
    Субдискретизация насыщенности : 4:2:0
    Битовая глубина : 8 бит
    Тип развёртки : Прогрессивная
    Метод сжатия : С потерями
    Бит/(Пиксели*Кадры) : 0.333
    Размер потока : 1,15 Гбайт (79%)
    Библиотека кодирования : XviD 65
    Аудио
    Идентификатор : 1
    Формат : AC-3
    Формат/Информация : Audio Coding 3
    Расширение режима : CM (complete main)
    Параметр Endianness формата : Big
    Идентификатор кодека : 2000
    Продолжительность : 1 ч. 34 м.
    Вид битрейта : Постоянный
    Битрейт : 448 Кбит/сек
    Каналы : 6 каналов
    Расположение каналов : Front: L C R, Side: L R, LFE
    Частота : 48,0 КГц
    Битовая глубина : 16 бит
    Метод сжатия : С потерями
    Размер потока : 302 Мбайт (20%)
    Выравнивание : Разделение по промежуткам
    Продолжительность промежутка : 42 мс. (1,00 видеокадр)
    Время предзагрузки промежутка : 500 мс.
    -
    Скачать .torrent

    Скачать торрент-файл бесплатно и на максимальной скорости!

    Как скачивать? · Что такое торрент? · Рейтинг и ограничения

    !ВНИМАНИЕ!
    Сайт не распространяет и не хранит электронные версии произведений, а занимается лишь лишь предоставлением доступа к создаваемому пользователями каталогу ссылок на торрент-файлы, которые содержат только списки хеш-сумм, убедительная просьба с жалобами обращаться напрямую к пользователю. Файлы для обмена на трекере предоставлены пользователями сайта, и администрация не несёт ответственности за их содержание. Просьба не заливать файлы, защищенные авторскими правами, а также файлы нелегального содержания!


    _________________
    [Профиль] [ЛС]
    Показать сообщения:    
    Ответить на тему

    Текущее время: Сегодня, в 02:40

    Часовой пояс: GMT + 2



    Вы не можете начинать темы
    Вы не можете отвечать на сообщения
    Вы не можете редактировать свои сообщения
    Вы не можете удалять свои сообщения
    Вы не можете голосовать в опросах
    Вы не можете прикреплять файлы к сообщениям
    Вы не можете скачивать файлы