BitTorrentTracker PerecTracker.org
BitTorrentTracker PerecTracker.org
    
Регистрация  ·  Вход
 
 · 
Забыли пароль?

  • Борода Короля / The King\'s Beard (Тони Коллингвуд / Tony Collingwood) [2002, мультфильм, семейный, DVDRip-AVC] DUB (Екатеринбург Арт) + MVO (Twister) + Original eng + rus sub

    Ответить на тему
     
    Автор Сообщение

    rechyn

    Создавать темы 08-Дек-2015 23:07

           

    [Цитировать]

    Борода короля / The King's Beard-Страна: Великобритания
    Жанр: мультфильм, семейный
    Продолжительность: 01:13:02
    Год выпуска: 2002
    Перевод 1: Профессиональный (дублированный) - Екатеринбург Арт
    Перевод 2: Профессиональный (многоголосый закадровый) - Twister
    Русские субтитры: есть-Режиссёр: Тони Коллингвуд / Tony Collingwood
    Роли озвучивали: Джим Бродбент, Робин Эдвардс, Мария Дарлинг, Морин Липман, Питер Иган, Аллан Кордунер, Джимми Хибберт, Колин МакФарлэйн, Керри Шейл, Кэролайн Бернштейн- | Релиз: -Описание: Король Катберт правит волшебным Зеркальным королевством, и у него самая длинная борода в мире. Она спускается из королевского дворца вниз по улицам столицы и покрывает всю страну! Подданные очень гордятся бородой своего повелителя, и лишь юный парикмахер Руфус знает, какая страшная опасность грозит Зеркальному королевству. Если срочно не побрить короля, злой колдун Джаспер и его армия отвратительных летучих мышей ухватятся за бороду Катберта и обрушат его страну в вечную подземную тьму. От Руфуса и его парикмахерского искусства зависит судьба целого волшебного королевства. Лишь бы он не запутался и не заблудился в королевской бороде…-Доп. информация:
    - За оцифровку с VHS дубляжа "Екатеринбург Арт" большое спасибо alenavova.
    - Работа со звуком и видео - xfiles.-Семпл: скачать-Качество: DVDRip-AVC
    Формат: MKV
    Видео: 716x574 (4:3) @ 764x574, 25.000 fps, AVC, ~1370 Kbps, 0.131 bits/pixel
    Аудио 1: Русский, 48.0 KHz, AC3, 1 ch, 192 Kbps - Дубляж | Екатеринбург Арт | VHS
    Аудио 2: Русский, 48.0 KHz, AC3, 2 ch, 192 Kbps - Многоголосый закадровый | Twister | DVD
    Аудио 3: English, 48.0 KHz, AC3, 2 ch, 192 Kbps - Original
    Субтитры: русские
    Подробные технические данные

    x264 log

    x264 [info]: 716x574p 16:15 @ 25/1 fps (cfr)x264 [info]: using SAR=16/15x264 [info]: using cpu capabilities: MMX2 SSE2Fast SSSE3 SSE4.2 AVXx264 [info]: profile High, level 4.0x264 [info]: cabac=1 ref=16 deblock=1:-2:-1 analyse=0x3:0x133 me=umh subme=11 psy=1 fade_compensate=0.00 psy_rd=0.60:0.00 mixed_ref=1 me_range=48 chroma_me=1 trellis=2 8x8dct=1 cqm=0 deadzone=21,11 fast_pskip=0 chroma_qp_offset=-2 threads=12 lookahead_threads=3 sliced_threads=0 nr=0 decimate=1 interlaced=0 bluray_compat=0 constrained_intra=0 fgo=0 bframes=12 b_pyramid=2 b_adapt=2 b_bias=0 direct=3 weightb=1 open_gop=0 weightp=2 keyint=250 keyint_min=25 scenecut=40 intra_refresh=0 rc=crf mbtree=0 crf=18.0000 qcomp=0.60 qpmin=0 qpmax=69 qpstep=4 ip_ratio=1.40 pb_ratio=1.30 aq=3:0.90x264 [info]: frame I:1178 Avg QP:14.35 size: 57923x264 [info]: frame P:28279 Avg QP:16.96 size: 14839x264 [info]: frame B:80099 Avg QP:18.56 size: 3279x264 [info]: consecutive B-frames: 3.3% 4.8% 16.1% 32.8% 25.1% 8.8% 3.9% 1.5% 1.1% 0.8% 0.4% 0.3% 1.2%x264 [info]: mb I I16..4: 11.0% 55.0% 34.1%x264 [info]: mb P I16..4: 1.0% 4.6% 2.1% P16..4: 29.7% 21.6% 10.9% 2.8% 0.5% skip:26.8%x264 [info]: mb B I16..4: 0.2% 0.5% 0.2% B16..8: 25.9% 8.0% 1.7% direct: 1.9% skip:61.8% L0:40.4% L1:52.5% BI: 7.1%x264 [info]: 8x8 transform intra:58.2% inter:39.4%x264 [info]: direct mvs spatial:100.0% temporal:0.0%x264 [info]: coded y,uvDC,uvAC intra: 70.9% 79.2% 65.8% inter: 11.4% 11.1% 3.9%x264 [info]: i16 v,h,dc,p: 50% 13% 11% 25%x264 [info]: i8 v,h,dc,ddl,ddr,vr,hd,vl,hu: 12% 11% 19% 8% 10% 9% 10% 10% 12%x264 [info]: i4 v,h,dc,ddl,ddr,vr,hd,vl,hu: 16% 11% 19% 8% 10% 9% 8% 8% 9%x264 [info]: i8c dc,h,v,p: 34% 33% 21% 12%x264 [info]: Weighted P-Frames: Y:4.2% UV:3.7%x264 [info]: ref P L0: 49.3% 4.4% 16.7% 5.8% 4.5% 3.8% 3.3% 2.1% 1.8% 1.5% 1.3% 1.3% 1.2% 1.1% 1.1% 0.8%x264 [info]: ref B L0: 69.6% 12.0% 5.0% 2.6% 2.0% 1.7% 1.6% 1.1% 0.8% 0.7% 0.7% 0.7% 0.7% 0.5% 0.3%x264 [info]: ref B L1: 91.8% 8.2%x264 [info]: kb/s:1370.15x264 [info]: encoded 109556 frames, 17.89 fps, 1370.15 kb/s, duration 1:42:03.41
    GeneralUnique ID : 200057432661057263699568945416181358202 (0x9681A8F6CD976ECAA08372DB197F9E7A)Complete name : The.King's.Beard.2002.DVDRip.x264-rutracker.xfiles.mkvFormat : MatroskaFormat version : Version 4 / Version 2File size : 1 022 MiBDuration : 1h 13mnOverall bit rate : 1 956 KbpsMovie name : The King's Beard (2002) DVDRip x264-rutracker.xfilesEncoded date : UTC 2014-08-15 08:44:03Writing application : mkvmerge v7.1.0 ('Good Love') 64bit built on Jul 27 2014 13:06:55Writing library : libebml v1.3.0 + libmatroska v1.4.1_STATISTICS_WRITING_APP : mkvmerge v7.1.0 ('Good Love') 64bit built on Jul 27 2014 13:06:55_STATISTICS_WRITING_DATE_UTC : 2014-08-15 08:44:03_STATISTICS_TAGS : BPS DURATION NUMBER_OF_FRAMES NUMBER_OF_BYTESDURATION : 01:11:56.075000000NUMBER_OF_FRAMES : 597NUMBER_OF_BYTES : 36888Attachment : Yes / Yes
    VideoID : 1Format : AVCFormat/Info : Advanced Video CodecFormat profile : High@L4.0Format settings, CABAC : YesFormat settings, ReFrames : 16 framesCodec ID : V_MPEG4/ISO/AVCDuration : 1h 13mnBit rate : 1 370 KbpsWidth : 716 pixelsHeight : 574 pixelsDisplay aspect ratio : 4:3Frame rate mode : ConstantFrame rate : 25.000 fpsColor space : YUVChroma subsampling : 4:2:0Bit depth : 8 bitsScan type : ProgressiveBits/(Pixel*Frame) : 0.131Stream size : 701 MiB (69%)Title : http://perectracker.org/viewtopic.php?t=4802131Writing library : x264 core 142 r2453kMod ea0ca51Encoding settings : cabac=1 / ref=16 / deblock=1:-2:-1 / analyse=0x3:0x133 / me=umh / subme=11 / psy=1 / fade_compensate=0.00 / psy_rd=0.60:0.00 / mixed_ref=1 /me_range=48 / chroma_me=1 / trellis=2 / 8x8dct=1 / cqm=0 / deadzone=21,11 / fast_pskip=0 / chroma_qp_offset=-2 / threads=12 / lookahead_threads=3 / sliced_threads=0 / nr=0 /decimate=1 / interlaced=0 / bluray_compat=0 / constrained_intra=0 / fgo=0 / bframes=12 / b_pyramid=2 / b_adapt=2 / b_bias=0 / direct=3 / weightb=1 / open_gop=0 / weightp=2 /keyint=250 / keyint_min=25 / scenecut=40 / intra_refresh=0 / rc=crf / mbtree=0 / crf=18.0000 / qcomp=0.60 / qpmin=0 / qpmax=69 / qpstep=4 / ip_ratio=1.40 / pb_ratio=1.30 / aq=3:0.90Default : YesForced : NoColor primaries : BT.601 PALTransfer characteristics : BT.470 System B, BT.470 System GMatrix coefficients : BT.601
    Audio #1ID : 2Format : AC-3Format/Info : Audio Coding 3Mode extension : CM (complete main)Format settings, Endianness : BigCodec ID : A_AC3Duration : 1h 13mnBit rate mode : ConstantBit rate : 192 KbpsChannel(s) : 1 channelChannel positions : Front: CSampling rate : 48.0 KHzBit depth : 16 bitsCompression mode : LossyStream size : 100 MiB (10%)Title : Дубляж | Екатеринбург Арт | VHSLanguage : RussianDefault : YesForced : No
    Audio #2ID : 3Format : AC-3Format/Info : Audio Coding 3Mode extension : CM (complete main)Format settings, Endianness : BigCodec ID : A_AC3Duration : 1h 13mnBit rate mode : ConstantBit rate : 192 KbpsChannel(s) : 2 channelsChannel positions : Front: L RSampling rate : 48.0 KHzBit depth : 16 bitsCompression mode : LossyStream size : 100 MiB (10%)Title : Многоголосый закадровый | Twister | DVDLanguage : RussianDefault : NoForced : No
    Audio #3ID : 4Format : AC-3Format/Info : Audio Coding 3Mode extension : CM (complete main)Format settings, Endianness : BigCodec ID : A_AC3Duration : 1h 13mnBit rate mode : ConstantBit rate : 192 KbpsChannel(s) : 2 channelsChannel positions : Front: L RSampling rate : 48.0 KHzBit depth : 16 bitsCompression mode : LossyStream size : 100 MiB (10%)Language : EnglishDefault : NoForced : No
    TextID : 5Format : UTF-8Codec ID : S_TEXT/UTF8Codec ID/Info : UTF-8 Plain TextLanguage : RussianDefault : NoForced : No
    Menu00:03:09.800 : :00:03:0900:05:04.720 : :00:05:0400:06:45.600 : :00:06:4500:08:43.640 : :00:08:4300:15:05.840 : :00:15:0500:18:15.640 : :00:18:1500:23:07.360 : :00:23:0700:24:43.560 : :00:24:4300:29:11.880 : :00:29:1100:32:50.800 : :00:32:5000:35:01.840 : :00:35:0100:39:12.480 : :00:39:1200:40:55.960 : :00:40:5500:42:45.680 : :00:42:4500:47:36.880 : :00:47:3600:50:12.880 : :00:50:1200:51:47.520 : :00:51:4700:55:17.080 : :00:55:1700:58:15.960 : :00:58:1501:00:56.640 : :01:00:5601:04:18.920 : :01:04:1801:07:49.520 : :01:07:4901:12:01.480 : :01:12:01

    Скриншоты

    Скачать .torrent

    Скачать торрент-файл бесплатно и на максимальной скорости!

    Как скачивать? · Что такое торрент? · Рейтинг и ограничения

    !ВНИМАНИЕ!
    Сайт не распространяет и не хранит электронные версии произведений, а занимается лишь лишь предоставлением доступа к создаваемому пользователями каталогу ссылок на торрент-файлы, которые содержат только списки хеш-сумм, убедительная просьба с жалобами обращаться напрямую к пользователю. Файлы для обмена на трекере предоставлены пользователями сайта, и администрация не несёт ответственности за их содержание. Просьба не заливать файлы, защищенные авторскими правами, а также файлы нелегального содержания!


    _________________
    [Профиль] [ЛС]
    Показать сообщения:    
    Ответить на тему

    Текущее время: Сегодня, в 02:38

    Часовой пояс: GMT + 2



    Вы не можете начинать темы
    Вы не можете отвечать на сообщения
    Вы не можете редактировать свои сообщения
    Вы не можете удалять свои сообщения
    Вы не можете голосовать в опросах
    Вы не можете прикреплять файлы к сообщениям
    Вы не можете скачивать файлы