BitTorrentTracker PerecTracker.org
BitTorrentTracker PerecTracker.org
    
Регистрация  ·  Вход
 
 · 
Забыли пароль?

  • Механика сердца / Jack and the Cuckoo-Clock Heart / Jack et la mécanique du coeur (Стефан Берла, Матиас Мальзьё / Stéphane Berla, Mathias Malzieu) [2013 г., мультфильм, мюзикл, фэнтези, драма, BDRip-AVC] MVO (AlexFilm) + DVO + Eng + Fre

    Ответить на тему
     
    Автор Сообщение

    rechyn

    Создавать темы 08-Дек-2015 23:07

           

    [Цитировать]

    | Все релизы мультфильма || BDRip-AVC, 2.56 GB |-P R E S E N T SМеханика сердца / Jack and the Cuckoo-Clock Heart / Jack et la mécanique du coeur-Страна: Франция, Бельгия
    Жанр: мультфильм, мюзикл, фэнтези, драма, приключения
    Продолжительность: 01:32:32
    Год выпуска: 2013
    Перевод 1: Профессиональный (многоголосый закадровый) AlexFilm
    Перевод 2: Любительский (двухголосый закадровый) М. Кенс и О. Брыкина по субтитрам dsa69
    Субтитры: русские только на песни-Режиссёр: Стефан Берла, Матиас Мальзьё / Stéphane Berla, Mathias Malzieu
    Роли озвучивали: Матиас Мальзьё, Оливия Руис, Гран Кор Маляд, Жан Рошфор, Росси де Пальма, Бабет, Мари Винсент, Эмили Луазо, Артур Х, Дани, Ален Башунг...- | | <- Рекомендуется присутствие родителей-Описание: Джек родился в Эдинбурге, в «самый холодный день на свете», и сердце его мгновенно оледенело. Брошенного матерью мальчика усыновляет акушерка-волшебница, Докторша Мадлен. Она вставляет ему в грудь часы, которые помогают сердцу биться, но влюбляться Джеку нельзя - такого пылкого чувства хрупкая сердечная механика не выдержит. Однако подросший Джек невольно нарушает запрет, увидев на прогулке маленькую уличную певицу...-Доп. информация: BDRip-AVC 648p сделан с BDRemuxa by -Azureus-.
    Моя отдельная благодарность представителю AlexFilm - Игорю Волкову, за предоставленную им профессиональную многоголосую озвучку и их субтитры на песни.
    (Перевод: Doctor Joker и MartinaG, Монтаж и сведение звука: Михаил Шорыгин, Озвучивание: Татьяна Манетина, Анна Тух, Михаил Суслов, Константин Погодаев, Роман Сопко).
    Так же отдельное спасибо следующим коллегам по группе RG Мультфильмы:
    - -Azureus- за сборку ремукса.
    - rtys за подготовку русских субтитров на песни.
    - xfiles за подготовку французских субтитров.
    И, конечное, слова благодарности - М. Кенс и О. Брыкиной, за их двухголосую озвучку.-Сэмпл/Sample (21.52 MB, 1 минута)-Качество: BDRip-AVC
    Формат: MKV
    Видео: 1152x648 (1.778:1), 24,000 fps, ~2364 kbps avg, 0.132 bit/pixel
    Аудио #1: Русский, AC3, 6 ch, 48 kHz, 384 kbps - MVO | AlexFilm
    Аудио #2: Русский, AC3, 6 ch, 48 kHz, 384 kbps - DVO | М. Кенс и О. Брыкина
    Аудио #3: English, AC3, 6 ch, 48 kHz, 384 kbps - Dubbing
    Аудио #4: French, AC3, 6 ch, 48 kHz, 448 kbps - Original
    Субтитры: Русские (только песни by AlexFilm), Русские (только песни by rtys), French (Full)
    Навигация по главам: нет
    MediaInfo / x264Log

    x264Log

    raw [info]: 1152x648p 1:1 @ 24 fps (cfr)x264 [info]: using SAR=1/1x264 [info]: using cpu capabilities: MMX2 SSE2Fast SSSE3 SSE4.2 AVX XOP FMA4 FMA3 LZCNT BMI1x264 [info]: profile High, level 4.1x264 [info]: frame I:1194 Avg QP:13.18 size: 93281 PSNR Mean Y:50.30 U:52.76 V:52.85 Avg:50.95 Global:50.58x264 [info]: frame P:32885 Avg QP:15.50 size: 24078 PSNR Mean Y:49.00 U:51.89 V:52.10 Avg:49.72 Global:49.18x264 [info]: frame B:99175 Avg QP:18.40 size: 7433 PSNR Mean Y:48.42 U:51.63 V:51.81 Avg:49.18 Global:48.61x264 [info]: consecutive B-frames: 3.4% 4.2% 14.4% 23.2% 15.0% 35.0% 2.6% 0.8% 0.4% 0.2% 0.1% 0.1% 0.1% 0.4%x264 [info]: mb I I16..4: 4.4% 67.9% 27.7%x264 [info]: mb P I16..4: 0.8% 12.1% 2.8% P16..4: 21.7% 21.2% 9.9% 2.2% 0.2% skip:29.0%x264 [info]: mb B I16..4: 0.2% 2.0% 0.3% B16..8: 22.4% 13.8% 2.6% direct: 3.2% skip:55.5% L0:39.3% L1:45.6% BI:15.2%x264 [info]: 8x8 transform intra:76.8% inter:51.8%x264 [info]: coded y,uvDC,uvAC intra: 80.1% 69.8% 50.9% inter: 12.9% 7.1% 1.7%x264 [info]: i16 v,h,dc,p: 31% 15% 5% 50%x264 [info]: i8 v,h,dc,ddl,ddr,vr,hd,vl,hu: 14% 14% 13% 7% 9% 9% 10% 10% 13%x264 [info]: i4 v,h,dc,ddl,ddr,vr,hd,vl,hu: 16% 12% 13% 7% 13% 11% 11% 8% 9%x264 [info]: i8c dc,h,v,p: 29% 39% 20% 12%x264 [info]: Weighted P-Frames: Y:4.8% UV:2.3%x264 [info]: ref P L0: 55.6% 10.9% 14.2% 5.3% 3.6% 2.9% 2.2% 1.4% 1.2% 1.2% 1.1% 0.3% 0.0%x264 [info]: ref B L0: 80.2% 8.3% 4.3% 2.1% 1.6% 1.3% 1.0% 0.7% 0.4% 0.2%x264 [info]: ref B L1: 94.2% 5.8%x264 [info]: SSIM Mean Y:0.9919881 (20.963db)x264 [info]: PSNR Mean Y:48.577 U:51.705 V:51.893 Avg:49.332 Global:48.757 kb/s:2363.51encoded 133254 frames, 9.19 fps, 2363.51 kb/s
    GeneralUnique ID : 228080772440366749921354616879049479210 (0xAB96C249C5E647EDA5D78AA1B1FE142A)Complete name : Jack.et.la.mécanique.du.coeur.2013.BDRip-AVC.648p.MVO.DVO.dfcbit.mkvFormat : MatroskaFormat version : Version 2File size : 2.56 GiBDuration : 1h 32mnOverall bit rate : 3 966 KbpsEncoded date : UTC 2014-08-26 08:27:24Writing application : mkvmerge v4.0.0 ('The Stars were mine') built on Jun 6 2010 16:18:42Writing library : libebml v1.0.0 + libmatroska v1.0.0
    VideoID : 1Format : AVCFormat/Info : Advanced Video CodecFormat profile : High@L4.1Format settings, CABAC : YesFormat settings, ReFrames : 11 framesCodec ID : V_MPEG4/ISO/AVCDuration : 1h 32mnBit rate : 2 364 KbpsWidth : 1 152 pixelsHeight : 648 pixelsDisplay aspect ratio : 16:9Frame rate mode : ConstantFrame rate : 24.000 fpsColor space : YUVChroma subsampling : 4:2:0Bit depth : 8 bitsScan type : ProgressiveBits/(Pixel*Frame) : 0.132Stream size : 1.53 GiB (58%)Title : NTSC, 1152x648 (1,778:1), BDRip-AVC 648p - tRuAVC & Multfilmy [DFCbit]Writing library : x264 core 142 r2453kMod ea0ca51Encoding settings : cabac=1 / ref=11 / deblock=1:-2:-2 / analyse=0x3:0x133 / me=umh / subme=11 / psy=1 / fade_compensate=0.00 / psy_rd=0.63:0.00 / mixed_ref=1 / me_range=32 / chroma_me=1 / trellis=2 / 8x8dct=1 / cqm=0 / deadzone=21,11 / fast_pskip=0 / chroma_qp_offset=-2 / threads=12 / lookahead_threads=3 / sliced_threads=0 / nr=0 / decimate=1 / interlaced=0 / bluray_compat=0 / constrained_intra=0 / fgo=0 / bframes=13 / b_pyramid=2 / b_adapt=2 / b_bias=0 / direct=1 / weightb=1 / open_gop=0 / weightp=2 / keyint=250 / keyint_min=23 / scenecut=40 / intra_refresh=0 / rc_lookahead=70 / rc=crf / mbtree=0 / crf=17.4699 / qcomp=0.81 / qpmin=0 / qpmax=69 / qpstep=4 / vbv_maxrate=50000 / vbv_bufsize=62500 / crf_max=0.0 / nal_hrd=none / filler=0 / ip_ratio=1.40 / pb_ratio=1.30 / aq=3:0.90Language : FrenchDefault : YesForced : NoColor primaries : BT.709Transfer characteristics : BT.709Matrix coefficients : BT.709
    Audio #1ID : 2Format : AC-3Format/Info : Audio Coding 3Mode extension : CM (complete main)Format settings, Endianness : BigCodec ID : A_AC3Duration : 1h 32mnBit rate mode : ConstantBit rate : 384 KbpsChannel(s) : 6 channelsChannel positions : Front: L C R, Side: L R, LFESampling rate : 48.0 KHzBit depth : 16 bitsCompression mode : LossyStream size : 254 MiB (10%)Title : AC3, 6 ch, 48 kHz, 384 kbps - MVO | AlexFilmLanguage : RussianDefault : YesForced : No
    Audio #2ID : 3Format : AC-3Format/Info : Audio Coding 3Mode extension : CM (complete main)Format settings, Endianness : BigCodec ID : A_AC3Duration : 1h 32mnBit rate mode : ConstantBit rate : 384 KbpsChannel(s) : 6 channelsChannel positions : Front: L C R, Side: L R, LFESampling rate : 48.0 KHzBit depth : 16 bitsCompression mode : LossyStream size : 254 MiB (10%)Title : AC3, 6 ch, 48 kHz, 384 kbps - DVO | М. Кенс и О. БрыкинаLanguage : RussianDefault : NoForced : No
    Audio #3ID : 4Format : AC-3Format/Info : Audio Coding 3Mode extension : CM (complete main)Format settings, Endianness : BigCodec ID : A_AC3Duration : 1h 32mnBit rate mode : ConstantBit rate : 384 KbpsChannel(s) : 6 channelsChannel positions : Front: L C R, Side: L R, LFESampling rate : 48.0 KHzBit depth : 16 bitsCompression mode : LossyStream size : 254 MiB (10%)Title : AC3, 6 ch, 48 kHz, 384 kbps - DubbingLanguage : EnglishDefault : NoForced : No
    Audio #4ID : 5Format : AC-3Format/Info : Audio Coding 3Mode extension : CM (complete main)Format settings, Endianness : BigCodec ID : A_AC3Duration : 1h 32mnBit rate mode : ConstantBit rate : 448 KbpsChannel(s) : 6 channelsChannel positions : Front: L C R, Side: L R, LFESampling rate : 48.0 KHzBit depth : 16 bitsCompression mode : LossyStream size : 297 MiB (11%)Title : AC3, 6 ch, 48 kHz, 448 kbps - OriginalLanguage : FrenchDefault : NoForced : No
    Text #1ID : 6Format : UTF-8Codec ID : S_TEXT/UTF8Codec ID/Info : UTF-8 Plain TextTitle : SRT, Песни by AlexFilmLanguage : RussianDefault : NoForced : No
    Text #2ID : 7Format : UTF-8Codec ID : S_TEXT/UTF8Codec ID/Info : UTF-8 Plain TextTitle : SRT, Песни by rtysLanguage : RussianDefault : NoForced : No
    Text #3ID : 8Format : UTF-8Codec ID : S_TEXT/UTF8Codec ID/Info : UTF-8 Plain TextTitle : SRT, FullLanguage : FrenchDefault : NoForced : No

    Скриншоты

    Скриншот с названием мультфильма
    --BDRip-AVC


    Source BDRemux

    Релиз от групп | and |-Данный релиз не будет воспроизводиться на бытовых плеерах не поддерживающих MKV и H.264Обсуждение релизов в AVC формате || Свежие AVC рипы
    Скачать .torrent

    Скачать торрент-файл бесплатно и на максимальной скорости!

    Как скачивать? · Что такое торрент? · Рейтинг и ограничения

    !ВНИМАНИЕ!
    Сайт не распространяет и не хранит электронные версии произведений, а занимается лишь лишь предоставлением доступа к создаваемому пользователями каталогу ссылок на торрент-файлы, которые содержат только списки хеш-сумм, убедительная просьба с жалобами обращаться напрямую к пользователю. Файлы для обмена на трекере предоставлены пользователями сайта, и администрация не несёт ответственности за их содержание. Просьба не заливать файлы, защищенные авторскими правами, а также файлы нелегального содержания!


    _________________
    [Профиль] [ЛС]
    Показать сообщения:    
    Ответить на тему

    Текущее время: Сегодня, в 20:03

    Часовой пояс: GMT + 2



    Вы не можете начинать темы
    Вы не можете отвечать на сообщения
    Вы не можете редактировать свои сообщения
    Вы не можете удалять свои сообщения
    Вы не можете голосовать в опросах
    Вы не можете прикреплять файлы к сообщениям
    Вы не можете скачивать файлы