BitTorrentTracker PerecTracker.org
BitTorrentTracker PerecTracker.org
    
Регистрация  ·  Вход
 
 · 
Забыли пароль?

  • За тридевять земель / Resan till Fjäderkungens Rike (Эсбен Тофт Якобсен / Esben Toft Jacobsen) [2013, фэнтези, HDRip] Dub

    Ответить на тему
     
    Автор Сообщение

    rechyn

    Создавать темы 08-Дек-2015 23:07

           

    [Цитировать]

    За тридевять земель / Resan till Fjäderkungens Rike
    Страна: Дания, Швеция
    Жанр: фэнтези
    Продолжительность: 01:18:24
    Год выпуска: 2013
    Перевод: Профессиональный (дублированный)
    Русские субтитры: нет
    Режиссёр: Эсбен Тофт Якобсен / Esben Toft Jacobsen
    Роли озвучивали: Эдвин Рюдинг, Тува Новотны, Густаф Хаммарстен, Леннарт Якель, Сиселла Кайл, Лейф Андре, Сёс Эгелинд, Ларс Бригманн, Флемминг Квист Мюллер
    Описание: В поисках своей мамы Йохан попадает в далекое Царство Короля Перьев, откуда нет дороги назад. От судьбы не уйдешь: теперь он должен сам позаботиться о спасении не только своей мамы, но и всего королевства. Но разве можно понимать все тонкости жизни и играть по ее правилам, когда ты еще так молод?
    Семпл: http://sendfile.su/1016022
    Качество: HDRip
    Формат: AVI
    Видео: XviD, 1732 Кбит/с, 720x304, 23,976 кадра/сек
    Аудио: Русский, АС3, 6 ch, 448 Кбит/с, 48,0 КГц
    Аудио 2: Шведский, АС3, 6 ch, 448 Кбит/с, 48,0 КГц
    Субтитры: отсутствуют

    Подробные технические данные

    ОбщееПолное имя : I:\За тридевять земель\Za.tridevyat.zemel.2014.HDRip_[New-Team]_by_avproh.aviФормат : AVIФормат/Информация : Audio Video InterleaveРазмер файла : 1,45 ГбайтПродолжительность : 1 ч. 18 м.Общий поток : 2642 Кбит/секПрограмма кодирования : VirtualDubModRus 1.5.10.2 (build 2542/release)Библиотека кодирования : VirtualDubMod build 2542/release
    ВидеоИдентификатор : 0Формат : MPEG-4 VisualПрофиль формата : Advanced Simple@L5Параметр BVOP формата : 1Параметр QPel формата : НетПараметр GMC формата : Без точки переходаПараметр матрицы формата : ВыборочнаяИдентификатор кодека : XVIDИдентификатор кодека/Подсказка : XviDПродолжительность : 1 ч. 18 м.Битрейт : 1732 Кбит/секШирина : 720 пикселейВысота : 304 пикселяСоотношение сторон : 2,35:1Частота кадров : 23,976 кадра/секЦветовое пространство : YUVСубдискретизация насыщенности : 4:2:0Битовая глубина : 8 битТип развёртки : ПрогрессивнаяМетод сжатия : С потерямиБит/(Пиксели*Кадры) : 0.330Размер потока : 971 Мбайт (66%)Библиотека кодирования : XviD 73
    Аудио #1Идентификатор : 1Формат : AC-3Формат/Информация : Audio Coding 3Расширение режима : CM (complete main)Параметр Endianness формата : BigИдентификатор кодека : 2000Продолжительность : 1 ч. 18 м.Вид битрейта : ПостоянныйБитрейт : 448 Кбит/секКаналы : 6 каналовРасположение каналов : Front: L C R, Side: L R, LFEЧастота : 48,0 КГцБитовая глубина : 16 битМетод сжатия : С потерямиРазмер потока : 251 Мбайт (17%)Выравнивание : Разделение по промежуткамПродолжительность промежутка : 42 мс. (1,00 видеокадр)Время предзагрузки промежутка : 500 мс.
    Аудио #2Идентификатор : 2Формат : AC-3Формат/Информация : Audio Coding 3Расширение режима : CM (complete main)Параметр Endianness формата : BigИдентификатор кодека : 2000Продолжительность : 1 ч. 18 м.Вид битрейта : ПостоянныйБитрейт : 448 Кбит/секКаналы : 6 каналовРасположение каналов : Front: L C R, Side: L R, LFEЧастота : 48,0 КГцБитовая глубина : 16 битМетод сжатия : С потерямиРазмер потока : 251 Мбайт (17%)Выравнивание : Разделение по промежуткамПродолжительность промежутка : 42 мс. (1,00 видеокадр)Время предзагрузки промежутка : 500 мс.

    Скриншоты

    Скачать .torrent

    Скачать торрент-файл бесплатно и на максимальной скорости!

    Как скачивать? · Что такое торрент? · Рейтинг и ограничения

    !ВНИМАНИЕ!
    Сайт не распространяет и не хранит электронные версии произведений, а занимается лишь лишь предоставлением доступа к создаваемому пользователями каталогу ссылок на торрент-файлы, которые содержат только списки хеш-сумм, убедительная просьба с жалобами обращаться напрямую к пользователю. Файлы для обмена на трекере предоставлены пользователями сайта, и администрация не несёт ответственности за их содержание. Просьба не заливать файлы, защищенные авторскими правами, а также файлы нелегального содержания!


    _________________
    [Профиль] [ЛС]
    Показать сообщения:    
    Ответить на тему

    Текущее время: Сегодня, в 21:58

    Часовой пояс: GMT + 2



    Вы не можете начинать темы
    Вы не можете отвечать на сообщения
    Вы не можете редактировать свои сообщения
    Вы не можете удалять свои сообщения
    Вы не можете голосовать в опросах
    Вы не можете прикреплять файлы к сообщениям
    Вы не можете скачивать файлы