BitTorrentTracker PerecTracker.org
BitTorrentTracker PerecTracker.org
    
Регистрация  ·  Вход
 
 · 
Забыли пароль?

  • Властелин Колец / The Lord of the Rings (Ральф Бакши / Ralph Bakshi) [1978, Фэнтези, Приключения, VHSRip] AVO (Кашкин)

    Ответить на тему
     
    Автор Сообщение

    rechyn

    Создавать темы 08-Дек-2015 23:07

           

    [Цитировать]

    Властелин Колец / J.R.R. Tolkien's The Lord of the Rings
    Страна: США
    Жанр: Фэнтези/Приключения
    Продолжительность: 2.06.45
    Год выпуска: 1978
    Перевод: Авторский (одноголосый закадровый) - Александр Кашкин ( Первомайский)
    Русские субтитры: нет
    Режиссёр: Ральф Бакши/Ralph Bakshi
    Роли озвучивали:
    Кристофер Гуард — Фродо Бэггинс, хоббит
    Майкл Шулз — Сэмуайз Гэмджи, хоббит, слуга Фродо
    Уильям Сквайр — Гэндальф, волшебник
    Джон Харт — Арагорн, следопыт и воин
    Симон Чандлер — Мериадок Брендибак, хоббит
    Доминик Гуард — Перегрин Тук, хоббит
    Норман Берд — Бильбо Бэггинс, старый хоббит
    Майкл Грехем Кокс — Боромир, сын наместника Гондора
    Энтони Дэниелс(с3по из звездных войн) — Леголас, эльф
    Дэвид Бак — Гимли, гном
    Питер Вудторп — Горлум
    Фрезер Керр — Саруман, волшебник
    Филип Стоун — Теоден, король Рохана
    Майкл Дикон — Грима, его советник
    Андре Морелль — Элронд, король эльфов
    Алан Тилверн — Барлиман, трактирщик
    Анетт Кросби — Галадриэль, королева эльфов
    Джон Вестбрук — Древобород, хранитель леса.
    Описание:
    У хоббита из Шира, Бильбо Бэггинса, хранилось волшебное кольцо. Оказалось, что оно - то самое Кольцо, что выковал Саурон, чтобы подчинить себе все эльфийские кольца. Кольцо необходимо уничтожить, поэтому племянник Бильбо, Фродо, отправляется в эльфийский город Ривенделл с тремя спутниками. Там совет народов Средиземья принимает решение об уничтожении Кольца в Ородруине. Девять представителей всех народов (один Истари, один Эльф, один Гном, два Человека и четыре Хоббита) отправляются в опасный поход. В пути Истари Гэндальф и один человек, Боромир, погибают, а остальные разделяются: двоих хоббитов берут в плен, двое (Фродо и его слуга Сэм) - продолжают путь к Ородруину, а оставшиеся сначала пытаются освободить пленников, а потом присоединяются к битве за Гондор.
    Доп. информация: Качество видео и звука не восстанавливал
    Семпл: https://www.sendspace.com/file/4t8xbi
    Качество: VHSRip
    Формат: AVI
    Видео: DivX 6 352x288 25fps 2 492 Kbps
    Аудио: Dolby AC3 44100Hz mono 320kbps
    Субтитры: отсутствуют

    Подробные технические данные

    GeneralComplete name : E:\Властелин Колец.aviFormat : AVIFormat/Info : Audio Video InterleaveFormat profile : OpenDMLFile size : 2.50 GiBDuration : 2h 6mnOverall bit rate : 2 821 KbpsMovie name : lv01Writing application : Lavf52.16.0
    VideoID : 0Format : MPEG-4 VisualFormat profile : Simple@L1Format settings, BVOP : NoFormat settings, QPel : NoFormat settings, GMC : No warppointsFormat settings, Matrix : Default (H.263)Codec ID : DIVXCodec ID/Info : Project MayoCodec ID/Hint : DivX 4Duration : 2h 6mnBit rate : 2 492 KbpsWidth : 352 pixelsHeight : 288 pixelsDisplay aspect ratio : 1.222Frame rate : 25.000 fpsStandard : PALColor space : YUVChroma subsampling : 4:2:0Bit depth : 8 bitsScan type : ProgressiveCompression mode : LossyBits/(Pixel*Frame) : 0.983Stream size : 2.21 GiB (88%)Writing library : Lavc51.57.2
    AudioID : 1Format : AC-3Format/Info : Audio Coding 3Mode extension : CM (complete main)Format settings, Endianness : BigCodec ID : 2000Duration : 2h 6mnBit rate mode : ConstantBit rate : 320 KbpsChannel count : 1 channelChannel positions : Front: CSampling rate : 44.1 KHzBit depth : 16 bitsCompression mode : LossyStream size : 290 MiB (11%)Alignment : Aligned on interleavesInterleave, duration : 35 ms (0.87 video frame)

    Скриншоты




    Скачать .torrent

    Скачать торрент-файл бесплатно и на максимальной скорости!

    Как скачивать? · Что такое торрент? · Рейтинг и ограничения

    !ВНИМАНИЕ!
    Сайт не распространяет и не хранит электронные версии произведений, а занимается лишь лишь предоставлением доступа к создаваемому пользователями каталогу ссылок на торрент-файлы, которые содержат только списки хеш-сумм, убедительная просьба с жалобами обращаться напрямую к пользователю. Файлы для обмена на трекере предоставлены пользователями сайта, и администрация не несёт ответственности за их содержание. Просьба не заливать файлы, защищенные авторскими правами, а также файлы нелегального содержания!


    _________________
    [Профиль] [ЛС]
    Показать сообщения:    
    Ответить на тему

    Текущее время: Сегодня, в 08:09

    Часовой пояс: GMT + 2



    Вы не можете начинать темы
    Вы не можете отвечать на сообщения
    Вы не можете редактировать свои сообщения
    Вы не можете удалять свои сообщения
    Вы не можете голосовать в опросах
    Вы не можете прикреплять файлы к сообщениям
    Вы не можете скачивать файлы