BitTorrentTracker PerecTracker.org
BitTorrentTracker PerecTracker.org
    
Регистрация  ·  Вход
 
 · 
Забыли пароль?

  • Барби и потайная дверь / Barbie and the Secret Door (Карен Джи Ллойд / Karen J Lloyd) [2014, мультфильм, BDRip] Dub

    Ответить на тему
     
    Автор Сообщение

    rechyn

    Создавать темы 08-Дек-2015 23:07

           

    [Цитировать]

    Барби и потайная дверь / Barbie and the Secret Door-Страна: США
    Жанр: мультфильм
    Год выпуска: 2014
    Продолжительность: 01:20:51
    Перевод: Профессиональный (полное дублирование)
    Русские субтитры: Нет-Режиссер: КаренДжи Ллойд / Karen J Lloyd-Описание: В этом мультфильме Барби предстанет в образе принцессы Алексы, которой больше нравится читать книги, чем выполнять королевские обязанности и ритуалы. Однажды Алекса находит тайную дверь в своей королевском саду, эта дверь оказывается копией той, про которую читала принцесса. Принцесса Алекса открывает дверь и попадает в волшебный мир, наполненный сказочными созданиями. В этом мире принцесса встречает Роми и Нори - русалку и принцессу, которые рассказывают ей об испорченной юной правительнице этого мира, старающейся похитить и забрать всю магию.-Рейтинг:
    -Релиз на DVD: 11 сентября 2014 «Двадцатый Век Фокс СНГ»
    Релиз на Blu-ray: 11 сентября 2014 «Двадцатый Век Фокс СНГ»-Релиз: -Семпл-Качество: BDRip [BARBIE_THE_SECRET_DOOR_HDCLUB]
    Формат: AVI
    Видео: 656x368 (1.78:1), 23.976 fps, XviD build 65 ~1150 kbps avg, 0.20 bit/pixel
    Аудио: 48 kHz, MPEG Layer 3, 2 ch, ~128.00 kbps avg
    Субтитры: Отсутствуют-

    MI

    Format : AVIFormat/Info : Audio Video InterleaveFile size : 745 MiBDuration : 1h 20mnOverall bit rate : 1 288 KbpsWriting application : VirtualDubMod 1.5.10.3 | www.virtualdub-fr.org || (build 2550/release)Writing library : VirtualDubMod build 2550/release
    VideoID : 0Format : MPEG-4 VisualFormat profile : Advanced Simple@L5Format settings, BVOP : 2Format settings, QPel : NoFormat settings, GMC : No warppointsFormat settings, Matrix : CustomCodec ID : XVIDCodec ID/Hint : XviDDuration : 1h 20mnBit rate : 1 151 KbpsWidth : 656 pixelsHeight : 368 pixelsDisplay aspect ratio : 16:9Frame rate : 23.976 fpsColor space : YUVChroma subsampling : 4:2:0Bit depth : 8 bitsScan type : ProgressiveCompression mode : LossyBits/(Pixel*Frame) : 0.199Stream size : 666 MiB (89%)Writing library : XviD 65
    AudioID : 1Format : MPEG AudioFormat version : Version 1Format profile : Layer 3Codec ID : 55Codec ID/Hint : MP3Duration : 1h 20mnBit rate mode : ConstantBit rate : 128 KbpsChannel(s) : 2 channelsSampling rate : 48.0 KHzCompression mode : LossyStream size : 74.0 MiB (10%)Alignment : Aligned on interleavesInterleave, duration : 42 ms (1.00 video frame)Interleave, preload duration : 504 msWriting library : LAME3.99rEncoding settings : -m s -V 4 -q 2 -lowpass 17 -b 128
    Все раздачи мультфильма!
    Скачать .torrent

    Скачать торрент-файл бесплатно и на максимальной скорости!

    Как скачивать? · Что такое торрент? · Рейтинг и ограничения

    !ВНИМАНИЕ!
    Сайт не распространяет и не хранит электронные версии произведений, а занимается лишь лишь предоставлением доступа к создаваемому пользователями каталогу ссылок на торрент-файлы, которые содержат только списки хеш-сумм, убедительная просьба с жалобами обращаться напрямую к пользователю. Файлы для обмена на трекере предоставлены пользователями сайта, и администрация не несёт ответственности за их содержание. Просьба не заливать файлы, защищенные авторскими правами, а также файлы нелегального содержания!


    _________________
    [Профиль] [ЛС]
    Показать сообщения:    
    Ответить на тему

    Текущее время: Сегодня, в 06:36

    Часовой пояс: GMT + 2



    Вы не можете начинать темы
    Вы не можете отвечать на сообщения
    Вы не можете редактировать свои сообщения
    Вы не можете удалять свои сообщения
    Вы не можете голосовать в опросах
    Вы не можете прикреплять файлы к сообщениям
    Вы не можете скачивать файлы