BitTorrentTracker PerecTracker.org
BitTorrentTracker PerecTracker.org
    
Регистрация  ·  Вход
 
 · 
Забыли пароль?

  • Механика сердца / Jack and the Cuckoo-Clock Heart / Jack et la mécanique du coeur (Стефан Берла, Матиас Мальзьё / Stéphane Berla, Mathias Malzieu) [2013, мультфильм, мюзикл, фэнтези, BDRip] MVO (AlexFilm) + Eng + Sub

    Ответить на тему
     
    Автор Сообщение

    rechyn

    Создавать темы 08-Дек-2015 23:07

           

    [Цитировать]

    Механика сердца / Jack and the Cuckoo-Clock Heart / Jack et la mécanique du coeur-Страна: Франция, Бельгия
    Жанр: мультфильм, мюзикл, фэнтези, драма, мелодрама, приключения
    Год выпуска: 2013
    Продолжительность: 01:32:32
    Перевод: Профессиональный (многоголосый, закадровый) - AlexFilm
    Русские субтитры: Есть-Режиссер: Стефан Берла, Матиас Мальзьё / Stéphane Berla, Mathias Malzieu-Роли озвучивали: Матиас Мальзьё (Jack, озвучка), Оливия Руис (Miss Acacia, озвучка), Гран Кор Маляд (Joe, озвучка), Жан Рошфор (Méliès, озвучка), Росси де Пальма (Luna, озвучка), Babet (Anna, озвучка), Мари Винсент (Madeleine #1, озвучка), Эмили Луазо (Madeleine #2, озвучка), Артур Х. (Arthur, озвучка), Дани (Brigitte Helm, озвучка), Ален Башунг (Jack l'éventreur, озвучка), Кали (L'homme qui pleure, озвучка)-Описание: Джек родился в Эдинбурге, в «самый холодный день на свете», и сердце его мгновенно оледенело. Брошенного матерью мальчика усыновляет акушерка-волшебница, Докторша Мадлен. Она вставляет ему в грудь часы, которые помогают сердцу биться, но влюбляться Джеку нельзя - такого пылкого чувства хрупкая сердечная механика не выдержит. Однако подросший Джек невольно нарушает запрет, увидев на прогулке маленькую уличную певицу...-Рейтинг:

    MPAA: - Рекомендуется присутствие родителей-Бюджет: $33 746 302
    Сборы в мире: $3 445 000
    Мировая премьера: 17 ноября 2013-Релиз: -Семпл-Качество: BDRip [Jack et la mécanique du coeur.2013.BDRemux 1080p.mkv]
    Формат: AVI
    Видео: 720x400 (1.80:1), 24.000 fps, XviD build 64 ~1861 kbps avg, 0.27 bit/pixel
    Аудио: 48 kHz, AC3 Dolby Digital, 3/2 (L,C,R,l,r) + LFE ch, ~384 kbps
    Аудио 2: 48 kHz, AC3 Dolby Digital, 3/2 (L,C,R,l,r) + LFE ch, ~384 kbps - Eng отдельным файлом
    Субтитры: Русские (только песни by AlexFilm), Русские (только песни by rtys)-

    MI

    Format : AVIFormat/Info : Audio Video InterleaveFile size : 1.46 GiBDuration : 1h 32mnOverall bit rate : 2 255 KbpsWriting application : VirtualDubMod 1.5.10.3 | www.virtualdub-fr.org || (build 2550/release)Writing library : VirtualDubMod build 2550/release
    VideoID : 0Format : MPEG-4 VisualFormat profile : Advanced Simple@L5Format settings, BVOP : 2Format settings, QPel : NoFormat settings, GMC : No warppointsFormat settings, Matrix : CustomCodec ID : XVIDCodec ID/Hint : XviDDuration : 1h 32mnBit rate : 1 861 KbpsWidth : 720 pixelsHeight : 400 pixelsDisplay aspect ratio : 16:9Frame rate : 24.000 fpsColor space : YUVChroma subsampling : 4:2:0Bit depth : 8 bitsScan type : ProgressiveCompression mode : LossyBits/(Pixel*Frame) : 0.269Stream size : 1.20 GiB (83%)Writing library : XviD 64
    AudioID : 1Format : AC-3Format/Info : Audio Coding 3Mode extension : CM (complete main)Format settings, Endianness : BigCodec ID : 2000Duration : 1h 32mnBit rate mode : ConstantBit rate : 384 KbpsChannel(s) : 6 channelsChannel positions : Front: L C R, Side: L R, LFESampling rate : 48.0 KHzBit depth : 16 bitsCompression mode : LossyStream size : 254 MiB (17%)Alignment : Split accross interleavesInterleave, duration : 42 ms (1.00 video frame)Interleave, preload duration : 500 ms
    Все раздачи мультфильма!
    Скачать .torrent

    Скачать торрент-файл бесплатно и на максимальной скорости!

    Как скачивать? · Что такое торрент? · Рейтинг и ограничения

    !ВНИМАНИЕ!
    Сайт не распространяет и не хранит электронные версии произведений, а занимается лишь лишь предоставлением доступа к создаваемому пользователями каталогу ссылок на торрент-файлы, которые содержат только списки хеш-сумм, убедительная просьба с жалобами обращаться напрямую к пользователю. Файлы для обмена на трекере предоставлены пользователями сайта, и администрация не несёт ответственности за их содержание. Просьба не заливать файлы, защищенные авторскими правами, а также файлы нелегального содержания!


    _________________
    [Профиль] [ЛС]
    Показать сообщения:    
    Ответить на тему

    Текущее время: Сегодня, в 04:06

    Часовой пояс: GMT + 2



    Вы не можете начинать темы
    Вы не можете отвечать на сообщения
    Вы не можете редактировать свои сообщения
    Вы не можете удалять свои сообщения
    Вы не можете голосовать в опросах
    Вы не можете прикреплять файлы к сообщениям
    Вы не можете скачивать файлы