BitTorrentTracker PerecTracker.org
BitTorrentTracker PerecTracker.org
    
Регистрация  ·  Вход
 
 · 
Забыли пароль?

  • Сказки Белль о дружбе / Belle\'s Tales Of Friendship (Джимбо Маршал / Jimbo Marshall) [1999, мультфильм, сказка, семейный, DVB] DUB (Невафильм)

    Ответить на тему
     
    Автор Сообщение

    rechyn

    Создавать темы 08-Дек-2015 23:07

           

    [Цитировать]

    Сказки Белль о дружбе / Belle's Tales Of Friendship-Страна: США
    Жанр: мультфильм, сказка, семейный
    Продолжительность: 01:05:23
    Год выпуска: 1999
    Перевод : Профессиональный (дублированный) "Невафильм"
    Русские субтитры: нет-Режиссёр: Джимбо Маршал / Jimbo Marshall
    Роли дублировали: Сауле Искакова, Максим Сергеев, Татьяна Михалевкина, Марк Макаренков, Матвей Мельников, Захар Рядных, Арина Хасанова, Евгения Белова, Игорь Шибанов, Елена Дриацкая, Олег Куликович, Виктор Костецкий.- | Релиз: -Описание: Прекрасная Белль и ее друзья рассказывают добрые сказки о дружбе. Зрителей ждут истории о трех поросятах, о Гензель и Гретель и другие замечательные истории. Волшебная книга сказок таит в себе много чудес!-Семпл: http://sendfile.su/1022539-Качество: DVB (Канал "Дисней")
    Формат: MPG
    Видео: 720x576 (4:3) @ 768x576, 25.000 fps, MPEG-2 Video, ~3600 Kbps, 0.347 bits/pixel
    Аудио: Русский, 48.0 KHz, AC3, 2 ch, 192 Kbps - Дубляж | "Невафильм"
    Субтитры: нет

    MediaInfo

    GeneralComplete name : Belle's Tales Of Friendship 1999 Disney.mpgFormat : MPEG-PSFile size : 1.77 GiBDuration : 1h 5mnOverall bit rate mode : VariableOverall bit rate : 3 869 Kbps
    VideoID : 224 (0xE0)Format : MPEG VideoFormat version : Version 2Format profile : Main@MainFormat settings, BVOP : YesFormat settings, Matrix : CustomFormat settings, GOP : VariableFormat settings, picture structure : FrameDuration : 1h 5mnBit rate mode : VariableBit rate : 3 600 KbpsMaximum bit rate : 15.0 MbpsWidth : 720 pixelsHeight : 576 pixelsDisplay aspect ratio : 4:3Frame rate : 25.000 fpsStandard : PALColor space : YUVChroma subsampling : 4:2:0Bit depth : 8 bitsScan type : InterlacedScan order : Top Field FirstCompression mode : LossyBits/(Pixel*Frame) : 0.347Time code of first frame : 00:00:00:00Time code source : Group of pictures headerStream size : 1.64 GiB (93%)
    AudioID : 192 (0xC0)Format : MPEG AudioFormat version : Version 1Format profile : Layer 2Duration : 1h 5mnBit rate mode : ConstantBit rate : 192 KbpsChannel(s) : 2 channelsSampling rate : 48.0 KHzCompression mode : LossyStream size : 89.8 MiB (5%)

    Скриншоты

    Скачать .torrent

    Скачать торрент-файл бесплатно и на максимальной скорости!

    Как скачивать? · Что такое торрент? · Рейтинг и ограничения

    !ВНИМАНИЕ!
    Сайт не распространяет и не хранит электронные версии произведений, а занимается лишь лишь предоставлением доступа к создаваемому пользователями каталогу ссылок на торрент-файлы, которые содержат только списки хеш-сумм, убедительная просьба с жалобами обращаться напрямую к пользователю. Файлы для обмена на трекере предоставлены пользователями сайта, и администрация не несёт ответственности за их содержание. Просьба не заливать файлы, защищенные авторскими правами, а также файлы нелегального содержания!


    _________________
    [Профиль] [ЛС]
    Показать сообщения:    
    Ответить на тему

    Текущее время: Сегодня, в 14:04

    Часовой пояс: GMT + 2



    Вы не можете начинать темы
    Вы не можете отвечать на сообщения
    Вы не можете редактировать свои сообщения
    Вы не можете удалять свои сообщения
    Вы не можете голосовать в опросах
    Вы не можете прикреплять файлы к сообщениям
    Вы не можете скачивать файлы