Register  ·  Log in
Forgot password?

  • Сказки Белль о дружбе / Belle\'s Tales Of Friendship (Джимбо Маршал / Jimbo Marshall) [1999, мультфильм, сказка, семейный, DVB] DUB (Невафильм)

    Reply to topic
    Author Message


    Post 09-Dec-2015 00:07



    Сказки Белль о дружбе / Belle's Tales Of Friendship-Страна: США
    Жанр: мультфильм, сказка, семейный
    Продолжительность: 01:05:23
    Год выпуска: 1999
    Перевод : Профессиональный (дублированный) "Невафильм"
    Русские субтитры: нет-Режиссёр: Джимбо Маршал / Jimbo Marshall
    Роли дублировали: Сауле Искакова, Максим Сергеев, Татьяна Михалевкина, Марк Макаренков, Матвей Мельников, Захар Рядных, Арина Хасанова, Евгения Белова, Игорь Шибанов, Елена Дриацкая, Олег Куликович, Виктор Костецкий.- | Релиз: -Описание: Прекрасная Белль и ее друзья рассказывают добрые сказки о дружбе. Зрителей ждут истории о трех поросятах, о Гензель и Гретель и другие замечательные истории. Волшебная книга сказок таит в себе много чудес!-Семпл:Качество: DVB (Канал "Дисней")
    Формат: MPG
    Видео: 720x576 (4:3) @ 768x576, 25.000 fps, MPEG-2 Video, ~3600 Kbps, 0.347 bits/pixel
    Аудио: Русский, 48.0 KHz, AC3, 2 ch, 192 Kbps - Дубляж | "Невафильм"
    Субтитры: нет


    GeneralComplete name : Belle's Tales Of Friendship 1999 Disney.mpgFormat : MPEG-PSFile size : 1.77 GiBDuration : 1h 5mnOverall bit rate mode : VariableOverall bit rate : 3 869 Kbps
    VideoID : 224 (0xE0)Format : MPEG VideoFormat version : Version 2Format profile : Main@MainFormat settings, BVOP : YesFormat settings, Matrix : CustomFormat settings, GOP : VariableFormat settings, picture structure : FrameDuration : 1h 5mnBit rate mode : VariableBit rate : 3 600 KbpsMaximum bit rate : 15.0 MbpsWidth : 720 pixelsHeight : 576 pixelsDisplay aspect ratio : 4:3Frame rate : 25.000 fpsStandard : PALColor space : YUVChroma subsampling : 4:2:0Bit depth : 8 bitsScan type : InterlacedScan order : Top Field FirstCompression mode : LossyBits/(Pixel*Frame) : 0.347Time code of first frame : 00:00:00:00Time code source : Group of pictures headerStream size : 1.64 GiB (93%)
    AudioID : 192 (0xC0)Format : MPEG AudioFormat version : Version 1Format profile : Layer 2Duration : 1h 5mnBit rate mode : ConstantBit rate : 192 KbpsChannel(s) : 2 channelsSampling rate : 48.0 KHzCompression mode : LossyStream size : 89.8 MiB (5%)


    Download .torrent

    Download free and at maximum speed!

    How to Download? · What is a torrent? · Ratings and Limitations

    The site does not extend and does not store electronic(digital) versions of products, and only gives access to a reference catalogue created by users on torrent-files which contain only lists of the hash-sums, the earnest entreaty, with complaints(abuse) to access directly to the user. Files for an exchange on tracker are given by users of a site, and the administration does not bear the responsibility for their maintenance. The request to not fill in the files protected by copyrights, and also files of the illegal maintenance!

    [Profile] [PM]
    Display posts from previous:    
    Reply to topic

    The time now is: Today 14:32

    All times are GMT + 3 Hours

    You cannot post new topics in this forum
    You cannot reply to topics in this forum
    You cannot edit your posts in this forum
    You cannot delete your posts in this forum
    You cannot vote in polls in this forum
    You cannot attach files in this forum
    You cannot download files in this forum