BitTorrentTracker PerecTracker.org
BitTorrentTracker PerecTracker.org
    
Регистрация  ·  Вход
 
 · 
Забыли пароль?

  • Сказки Белль о дружбе / Belle\'s Tales Of Friendship (Джимбо Маршал / Jimbo Marshall) [1999, мультфильм, сказка, семейный, SATRip] Dub (Невафильм)

    Ответить на тему
     
    Автор Сообщение

    rechyn

    Создавать темы 08-Дек-2015 23:07

           

    [Цитировать]

    Сказки Белль о дружбе / Belle's Tales Of Friendship
    Страна: США
    Жанр: мультфильм, сказка, семейный
    Продолжительность: 01:05:23
    Год выпуска: 1999
    Перевод: Профессиональный (дублированный) "Невафильм"
    Русские субтитры: нет
    Режиссёр: Джимбо Маршал / Jimbo Marshall
    Роли озвучивали: Сауле Искакова, Максим Сергеев, Татьяна Михалевкина, Марк Макаренков, Матвей Мельников, Захар Рядных, Арина Хасанова, Евгения Белова, Игорь Шибанов, Елена Дриацкая, Олег Куликович, Виктор Костецкий.
    Описание: Прекрасная Белль и ее друзья рассказывают добрые сказки о дружбе. Зрителей ждут истории о трех поросятах, о Гензель и Гретель и другие замечательные истории. Волшебная книга сказок таит в себе много чудес!
    Доп. информация: Релиз - Romanych_777 для
    Огромная благодарность xfiles за исходники!
    Семпл: http://sendfile.su/1023161
    Качество: SATRip (Канал "Дисней")
    Формат: AVI
    Видео: 704x544 (1,294), 25.000 fps, XviD MPEG-4 , ~1425 Kbps, 0.149 bit/pixel
    Аудио: Русский, 48.0 KHz, MP3, 2 ch, 128 Kbps - Дубляж | "Невафильм"
    Субтитры: Нет

    Подробные технические данные

    ОбщееПолное имя : D:\µTorrent\Раздачи\Раздачи (RuTracker.org)\Сказки Белль о дружбе.aviФормат : AVIФормат/Информация : Audio Video InterleaveРазмер файла : 731 МбайтПродолжительность : 1 ч. 5 м.Общий поток : 1562 Кбит/секБиблиотека кодирования : VirtualDub build 32842/release
    ВидеоИдентификатор : 0Формат : MPEG-4 VisualПрофиль формата : Advanced Simple@L5Параметр BVOP формата : 1Параметр QPel формата : НетПараметр GMC формата : Без точки переходаПараметр матрицы формата : Default (MPEG)Идентификатор кодека : XVIDИдентификатор кодека/Подсказка : XviDПродолжительность : 1 ч. 5 м.Битрейт : 1425 Кбит/секШирина : 704 пикселяВысота : 544 пикселяСоотношение сторон : 1,294Частота кадров : 25,000 кадров/секЦветовое пространство : YUVСубдискретизация насыщенности : 4:2:0Битовая глубина : 8 битТип развёртки : ПрогрессивнаяМетод сжатия : С потерямиБит/(Пиксели*Кадры) : 0.149Размер потока : 666 Мбайт (91%)Библиотека кодирования : XviD 64
    АудиоИдентификатор : 1Формат : MPEG AudioВерсия формата : Version 1Профиль формата : Layer 3Режим : Joint stereoРасширение режима : MS StereoИдентификатор кодека : 55Идентификатор кодека/Подсказка : MP3Продолжительность : 1 ч. 5 м.Вид битрейта : ПостоянныйБитрейт : 128 Кбит/секКаналы : 2 каналаЧастота : 48,0 КГцМетод сжатия : С потерямиРазмер потока : 59,9 Мбайт (8%)Выравнивание : Разделение по промежуткамПродолжительность промежутка : 40 мс. (1,00 видеокадр)Время предзагрузки промежутка : 500 мс.

    Скриншоты



    Спектр аудио

    Время раздачи: с 14:00 до 00;00 по Москве
    до 5 сидов
    UPD от 16.‎09.‎2014 Рип переделан согласно правилам раздела
    Скачать .torrent

    Скачать торрент-файл бесплатно и на максимальной скорости!

    Как скачивать? · Что такое торрент? · Рейтинг и ограничения

    !ВНИМАНИЕ!
    Сайт не распространяет и не хранит электронные версии произведений, а занимается лишь лишь предоставлением доступа к создаваемому пользователями каталогу ссылок на торрент-файлы, которые содержат только списки хеш-сумм, убедительная просьба с жалобами обращаться напрямую к пользователю. Файлы для обмена на трекере предоставлены пользователями сайта, и администрация не несёт ответственности за их содержание. Просьба не заливать файлы, защищенные авторскими правами, а также файлы нелегального содержания!


    _________________
    [Профиль] [ЛС]
    Показать сообщения:    
    Ответить на тему

    Текущее время: Сегодня, в 14:16

    Часовой пояс: GMT + 2



    Вы не можете начинать темы
    Вы не можете отвечать на сообщения
    Вы не можете редактировать свои сообщения
    Вы не можете удалять свои сообщения
    Вы не можете голосовать в опросах
    Вы не можете прикреплять файлы к сообщениям
    Вы не можете скачивать файлы