BitTorrentTracker PerecTracker.org
BitTorrentTracker PerecTracker.org
    
Регистрация  ·  Вход
 
 · 
Забыли пароль?

  • Секретная миссия Санты / The Magic Crystal / Maaginen kristalli (Антти Хаикала / Antti Haikala) [2011 г., мультфильм, фэнтези, приключения, семейный, BDRip-AVC] [GER Transfer] DVO (Баритон) + Eng + Sub Ger

    Ответить на тему
     
    Автор Сообщение

    rechyn

    Создавать темы 08-Дек-2015 23:07

           

    [Цитировать]

    | Все релизы мультфильма || BDRip-AVC, 2.71 GB |-P R E S E N T SСекретная миссия Санты / The Magic Crystal / Maaginen kristalli-Страна: Финляндия, Бельгия
    Жанр: мультфильм, фэнтези, приключения, семейный
    Продолжительность: 01:15:55
    Год выпуска: 2011
    Перевод: Профессиональный (двухголосый закадровый) Студия "Баритон"
    Субтитры: русских нет-Режиссёр: Антти Хаикала / Antti Haikala
    Роли озвучивали: Юкка Нилунд, Паула Весала, Кити Кокконен, Веэти Каллио, Антти Яакола, Хенни-Лииса Стам, Йон Йон Гейтель, Аапо Хаикала, Вейкко Хонканен, Мария Кемппайнен, Майя-Лииса Пеуху, Аарни Хуокки, Юхани Раджалин, Минна Тасанто...- | | -Описание: Анимационный фильм рассказывает историю похищения волшебного кристалла Санты. Магический камень позволял поздравить с Рождеством всех детей в мире одновременно и теперь Санта не знает, как быть. Преступный замысел удалось реализовать отвратительному брату-близнецу Санты Бэзилу. Немаловажную роль в этом деле сыграл сирота Йотэн. К счастью, мальчик вовремя осознает свою ошибку и попытается исправить ситуацию. Но удастся ли ему вернуть все на свои места? Сможет ли Санта поздравить с Рождеством детей во всем мире?...-Доп. информация: BDRip-AVC 612p сделан с Blu-Ray диска The Magic Crystal 2011 2D+3D 1080p Blu-Ray AVC DTS-HD MA 5.1-HDChina (German Transfer).
    Отдельное спасибо xfiles за подготовку русской звуковой дорожки.
    -Сэмпл/Sample (35.9 MB, 1 минута)-Качество: BDRip-AVC
    Формат: MKV
    Видео: 1132x612 (1.850:1), 23,976 fps, ~4469 kbps avg, 0.269 bit/pixel
    Аудио #1: Русский, AC3, 2 ch, 48 kHz, 192 kbps - DVO | Студия "Баритон"
    Аудио #2: English, AC3, 6 ch, 48 kHz, 448 kbps - Dubbing
    Субтитры: German (Full)
    Навигация по главам: есть (12 не именованных глав)
    MediaInfo / x264Log

    x264Log

    raw [info]: 1132x612p 1:1 @ 24000/1001 fps (cfr)x264 [info]: using SAR=1/1x264 [info]: using cpu capabilities: MMX2 SSE2Fast SSSE3 SSE4.2 AVX XOP FMA4 FMA3 LZCNT BMI1x264 [info]: profile High, level 4.1x264 [info]: frame I:725 Avg QP:16.75 size: 92601 PSNR Mean Y:46.45 U:49.74 V:48.94 Avg:47.07 Global:46.28x264 [info]: frame P:25903 Avg QP:18.28 size: 43441 PSNR Mean Y:45.45 U:49.47 V:48.77 Avg:46.10 Global:45.33x264 [info]: frame B:82577 Avg QP:20.60 size: 16371 PSNR Mean Y:44.10 U:48.28 V:47.35 Avg:44.83 Global:43.99x264 [info]: consecutive B-frames: 4.0% 3.9% 11.0% 15.2% 10.9% 46.7% 3.5% 1.0% 1.2% 0.5% 0.5% 0.4% 0.3% 0.3% 0.6%x264 [info]: mb I I16..4: 8.8% 70.8% 20.4%x264 [info]: mb P I16..4: 2.4% 26.1% 3.5% P16..4: 23.0% 26.7% 10.7% 1.1% 0.1% skip: 6.4%x264 [info]: mb B I16..4: 0.3% 3.3% 0.4% B16..8: 30.0% 24.5% 5.4% direct: 6.0% skip:30.0% L0:44.2% L1:41.7% BI:14.2%x264 [info]: 8x8 transform intra:81.0% inter:58.9%x264 [info]: coded y,uvDC,uvAC intra: 86.4% 91.1% 75.4% inter: 30.7% 26.4% 6.9%x264 [info]: i16 v,h,dc,p: 13% 9% 7% 71%x264 [info]: i8 v,h,dc,ddl,ddr,vr,hd,vl,hu: 10% 9% 11% 9% 13% 11% 13% 11% 14%x264 [info]: i4 v,h,dc,ddl,ddr,vr,hd,vl,hu: 26% 9% 6% 7% 12% 10% 11% 8% 10%x264 [info]: i8c dc,h,v,p: 36% 27% 17% 20%x264 [info]: Weighted P-Frames: Y:3.8% UV:2.9%x264 [info]: ref P L0: 43.9% 11.1% 18.2% 6.6% 5.6% 3.7% 3.5% 1.9% 1.9% 1.5% 1.6% 0.3% 0.0%x264 [info]: ref B L0: 72.4% 11.9% 5.7% 3.0% 2.1% 1.7% 1.4% 0.9% 0.6% 0.3%x264 [info]: ref B L1: 93.3% 6.7%x264 [info]: SSIM Mean Y:0.9762358 (16.241db)x264 [info]: PSNR Mean Y:44.432 U:48.569 V:47.699 Avg:45.149 Global:44.281 kb/s:4468.76encoded 109205 frames, 7.47 fps, 4468.76 kb/s
    GeneralUnique ID : 215372530553707554723787383913354093073 (0xA2073D9698EF7BD99417CCDA29FFE211)Complete name : The.Magic.Crystal.2011.Ger.Video.BDRip-AVC.612p.dfcbit.mkvFormat : MatroskaFormat version : Version 2File size : 2.71 GiBDuration : 1h 15mnOverall bit rate : 5 111 KbpsEncoded date : UTC 2014-09-25 06:36:25Writing application : mkvmerge v4.0.0 ('The Stars were mine') built on Jun 6 2010 16:18:42Writing library : libebml v1.0.0 + libmatroska v1.0.0
    VideoID : 1Format : AVCFormat/Info : Advanced Video CodecFormat profile : High@L4.1Format settings, CABAC : YesFormat settings, ReFrames : 11 framesCodec ID : V_MPEG4/ISO/AVCDuration : 1h 15mnBit rate : 4 469 KbpsWidth : 1 132 pixelsHeight : 612 pixelsDisplay aspect ratio : 1.85:1Frame rate mode : ConstantFrame rate : 23.976 fpsColor space : YUVChroma subsampling : 4:2:0Bit depth : 8 bitsScan type : ProgressiveBits/(Pixel*Frame) : 0.269Stream size : 2.36 GiB (85%)Title : NTSC, 1132x612 (1.850:1), BDRip-AVC 612p - tRuAVC & Multfilmy [DFCbit]Writing library : x264 core 142 r2479kMod dd79a61Encoding settings : cabac=1 / ref=11 / deblock=1:-2:-1 / analyse=0x3:0x133 / me=umh / subme=11 / psy=1 / fade_compensate=0.00 / psy_rd=0.63:0.00 / mixed_ref=1 / me_range=32 / chroma_me=1 / trellis=2 / 8x8dct=1 / cqm=0 / deadzone=21,11 / fast_pskip=0 / chroma_qp_offset=-2 / threads=12 / lookahead_threads=3 / sliced_threads=0 / nr=0 / decimate=1 / interlaced=0 / bluray_compat=0 / constrained_intra=0 / fgo=0 / bframes=14 / b_pyramid=2 / b_adapt=2 / b_bias=0 / direct=1 / weightb=1 / open_gop=0 / weightp=2 / keyint=250 / keyint_min=23 / scenecut=40 / intra_refresh=0 / rc_lookahead=70 / rc=crf / mbtree=0 / crf=19.4499 / qcomp=0.81 / qpmin=0 / qpmax=69 / qpstep=4 / vbv_maxrate=50000 / vbv_bufsize=62500 / crf_max=0.0 / nal_hrd=none / filler=0 / ip_ratio=1.40 / pb_ratio=1.30 / aq=3:0.90Language : GermanDefault : YesForced : NoColor primaries : BT.709Transfer characteristics : BT.709Matrix coefficients : BT.709
    Audio #1ID : 2Format : AC-3Format/Info : Audio Coding 3Mode extension : CM (complete main)Format settings, Endianness : BigCodec ID : A_AC3Duration : 1h 15mnBit rate mode : ConstantBit rate : 192 KbpsChannel(s) : 2 channelsChannel positions : Front: L RSampling rate : 48.0 KHzBit depth : 16 bitsCompression mode : LossyStream size : 104 MiB (4%)Title : AC3, 2 ch, 48 kHz, 192 kbps - DVO | Студия "Баритон"Language : RussianDefault : YesForced : No
    Audio #2ID : 3Format : AC-3Format/Info : Audio Coding 3Mode extension : CM (complete main)Format settings, Endianness : BigCodec ID : A_AC3Duration : 1h 15mnBit rate mode : ConstantBit rate : 448 KbpsChannel(s) : 6 channelsChannel positions : Front: L C R, Side: L R, LFESampling rate : 48.0 KHzBit depth : 16 bitsCompression mode : LossyStream size : 243 MiB (9%)Title : AC3, 6 ch, 48 kHz, 448 kbps - DubbingLanguage : EnglishDefault : NoForced : No
    TextID : 4Format : UTF-8Codec ID : S_TEXT/UTF8Codec ID/Info : UTF-8 Plain TextTitle : FullLanguage : GermanDefault : NoForced : No
    Menu00:00:00.000 : en:Chapter 100:04:56.755 : en:Chapter 200:12:21.908 : en:Chapter 300:19:24.080 : en:Chapter 400:25:25.816 : en:Chapter 500:30:27.034 : en:Chapter 600:36:55.296 : en:Chapter 700:43:27.313 : en:Chapter 800:49:35.181 : en:Chapter 900:55:14.561 : en:Chapter 1001:01:30.228 : en:Chapter 1101:08:47.749 : en:Chapter 12

    Скриншоты

    Скриншот с названием мультфильма
    --BDRip-AVC


    Source Blu-Ray

    Релиз от групп | and |-Данный релиз не будет воспроизводиться на бытовых плеерах не поддерживающих MKV и H.264Обсуждение релизов в AVC формате || Свежие AVC рипы
    Скачать .torrent

    Скачать торрент-файл бесплатно и на максимальной скорости!

    Как скачивать? · Что такое торрент? · Рейтинг и ограничения

    !ВНИМАНИЕ!
    Сайт не распространяет и не хранит электронные версии произведений, а занимается лишь лишь предоставлением доступа к создаваемому пользователями каталогу ссылок на торрент-файлы, которые содержат только списки хеш-сумм, убедительная просьба с жалобами обращаться напрямую к пользователю. Файлы для обмена на трекере предоставлены пользователями сайта, и администрация не несёт ответственности за их содержание. Просьба не заливать файлы, защищенные авторскими правами, а также файлы нелегального содержания!


    _________________
    [Профиль] [ЛС]
    Показать сообщения:    
    Ответить на тему

    Текущее время: Сегодня, в 08:00

    Часовой пояс: GMT + 2



    Вы не можете начинать темы
    Вы не можете отвечать на сообщения
    Вы не можете редактировать свои сообщения
    Вы не можете удалять свои сообщения
    Вы не можете голосовать в опросах
    Вы не можете прикреплять файлы к сообщениям
    Вы не можете скачивать файлы