Register  ·  Log in
Forgot password?

  • Путешествие Попая: В поисках Паппи / Popeye\'s Voyage: The Quest for Pappy (Изекиль Нортон / Ezekiel Norton) [2004, Анимация, HDRip] AVO (Дольский)

    Reply to topic
    Author Message


    Post 09-Dec-2015 00:07



    Путешествие Попая: В поисках Паппи / Popeye's Voyage: The Quest for Pappy
    Страна: Канада, США
    Жанр: Анимация
    Продолжительность: 00:47:53
    Год выпуска: 2004
    Перевод: Авторский (одноголосый закадровый) Андрей Дольский
    Русские субтитры: нет
    Режиссёр: Изекиль Нортон / Ezekiel Norton
    Роли озвучивали: Кэти Бейтс, Гари Чок, Табита Сен-Жермен, Билли Уэст, Сандерс Уайтинг
    Описание: Popeye, Olive and Bluto head out to find Popeye's long lost Pappy.
    Доп. информация: Дорожка с А. Дольским синхронизирована, ремастирована и наложена ale_x2008 при помощи Adobe Audition, Sony Vegas и VirtualDubMod.
    За оцифрованную дорожку и видеоряд, найденный в сети, благодарим - Ace34

    Качество: HDRip
    Формат: AVI
    Видео: XviD build 73, 720x400, 25.00fps, 1842 Kbps, 0.26 bit/pixel
    Аудио: AC3 Dolby Digital, 48000Hz, 2/0 (L,R) ch (stereo), 192.00 kbps avg
    Субтитры: отсутствуют

    Подробные технические данные

    Путешествие Попая - В поисках Паппи - Popeye's Voyage - The Quest for Pappy HDRip Dolsky.aviFormat : AVIFormat/Info : Audio Video InterleaveFile size : 700 MiBDuration : 47mn 53sOverall bit rate : 2 045 KbpsDirector : ale_x2008Genre : AdventureWriting application : VirtualDubMod (build 2550/release)Original source form/Name : CartoonComment : 01.10.2014
    VideoID : 0Format : MPEG-4 VisualFormat profile : Advanced Simple@L5Format settings, BVOP : 1Format settings, QPel : NoFormat settings, GMC : No warppointsFormat settings, Matrix : Default (MPEG)Codec ID : XVIDCodec ID/Hint : XviDDuration : 47mn 53sBit rate : 1 843 KbpsWidth : 720 pixelsHeight : 400 pixelsDisplay aspect ratio : 16:9Frame rate : 25.000 fpsColor space : YUVChroma subsampling : 4:2:0Bit depth : 8 bitsScan type : ProgressiveCompression mode : LossyBits/(Pixel*Frame) : 0.256Stream size : 631 MiB (90%)Writing library : XviD 73
    AudioID : 1Format : AC-3Format/Info : Audio Coding 3Mode extension : CM (complete main)Format settings, Endianness : BigCodec ID : 2000Duration : 47mn 53sBit rate mode : ConstantBit rate : 192 KbpsChannel(s) : 2 channelsChannel positions : Front: L RSampling rate : 48.0 KHzBit depth : 16 bitsCompression mode : LossyStream size : 65.8 MiB (9%)Alignment : Split accross interleavesInterleave, duration : 40 ms (1.00 video frame)Interleave, preload duration : 500 ms


    Download .torrent

    Download free and at maximum speed!

    How to Download? · What is a torrent? · Ratings and Limitations

    The site does not extend and does not store electronic(digital) versions of products, and only gives access to a reference catalogue created by users on torrent-files which contain only lists of the hash-sums, the earnest entreaty, with complaints(abuse) to access directly to the user. Files for an exchange on tracker are given by users of a site, and the administration does not bear the responsibility for their maintenance. The request to not fill in the files protected by copyrights, and also files of the illegal maintenance!

    [Profile] [PM]
    Display posts from previous:    
    Reply to topic

    The time now is: Today 07:03

    All times are GMT + 3 Hours

    You cannot post new topics in this forum
    You cannot reply to topics in this forum
    You cannot edit your posts in this forum
    You cannot delete your posts in this forum
    You cannot vote in polls in this forum
    You cannot attach files in this forum
    You cannot download files in this forum