BitTorrentTracker PerecTracker.org
BitTorrentTracker PerecTracker.org
    
Регистрация  ·  Вход
 
 · 
Забыли пароль?

  • Путешествие Попая: В поисках Паппи / Popeye\'s Voyage: The Quest for Pappy (Изекиль Нортон / Ezekiel Norton) [2004, Анимация, HDRip] AVO (Дольский)

    Ответить на тему
     
    Автор Сообщение

    rechyn

    Создавать темы 08-Дек-2015 23:07

           

    [Цитировать]

    Путешествие Попая: В поисках Паппи / Popeye's Voyage: The Quest for Pappy
    Страна: Канада, США
    Жанр: Анимация
    Продолжительность: 00:47:53
    Год выпуска: 2004
    Перевод: Авторский (одноголосый закадровый) Андрей Дольский
    Русские субтитры: нет
    Режиссёр: Изекиль Нортон / Ezekiel Norton
    Роли озвучивали: Кэти Бейтс, Гари Чок, Табита Сен-Жермен, Билли Уэст, Сандерс Уайтинг
    Описание: Popeye, Olive and Bluto head out to find Popeye's long lost Pappy.
    Доп. информация: Дорожка с А. Дольским синхронизирована, ремастирована и наложена ale_x2008 при помощи Adobe Audition, Sony Vegas и VirtualDubMod.
    За оцифрованную дорожку и видеоряд, найденный в сети, благодарим - Ace34

    Семпл: https://yadi.sk/d/GbWVIoDTbmVWh
    Качество: HDRip
    Формат: AVI
    Видео: XviD build 73, 720x400, 25.00fps, 1842 Kbps, 0.26 bit/pixel
    Аудио: AC3 Dolby Digital, 48000Hz, 2/0 (L,R) ch (stereo), 192.00 kbps avg
    Субтитры: отсутствуют

    Подробные технические данные

    Путешествие Попая - В поисках Паппи - Popeye's Voyage - The Quest for Pappy HDRip Dolsky.aviFormat : AVIFormat/Info : Audio Video InterleaveFile size : 700 MiBDuration : 47mn 53sOverall bit rate : 2 045 KbpsDirector : ale_x2008Genre : AdventureWriting application : VirtualDubMod 1.5.10.3 (build 2550/release)Original source form/Name : CartoonComment : 01.10.2014
    VideoID : 0Format : MPEG-4 VisualFormat profile : Advanced Simple@L5Format settings, BVOP : 1Format settings, QPel : NoFormat settings, GMC : No warppointsFormat settings, Matrix : Default (MPEG)Codec ID : XVIDCodec ID/Hint : XviDDuration : 47mn 53sBit rate : 1 843 KbpsWidth : 720 pixelsHeight : 400 pixelsDisplay aspect ratio : 16:9Frame rate : 25.000 fpsColor space : YUVChroma subsampling : 4:2:0Bit depth : 8 bitsScan type : ProgressiveCompression mode : LossyBits/(Pixel*Frame) : 0.256Stream size : 631 MiB (90%)Writing library : XviD 73
    AudioID : 1Format : AC-3Format/Info : Audio Coding 3Mode extension : CM (complete main)Format settings, Endianness : BigCodec ID : 2000Duration : 47mn 53sBit rate mode : ConstantBit rate : 192 KbpsChannel(s) : 2 channelsChannel positions : Front: L RSampling rate : 48.0 KHzBit depth : 16 bitsCompression mode : LossyStream size : 65.8 MiB (9%)Alignment : Split accross interleavesInterleave, duration : 40 ms (1.00 video frame)Interleave, preload duration : 500 ms

    Скриншоты

    Скачать .torrent

    Скачать торрент-файл бесплатно и на максимальной скорости!

    Как скачивать? · Что такое торрент? · Рейтинг и ограничения

    !ВНИМАНИЕ!
    Сайт не распространяет и не хранит электронные версии произведений, а занимается лишь лишь предоставлением доступа к создаваемому пользователями каталогу ссылок на торрент-файлы, которые содержат только списки хеш-сумм, убедительная просьба с жалобами обращаться напрямую к пользователю. Файлы для обмена на трекере предоставлены пользователями сайта, и администрация не несёт ответственности за их содержание. Просьба не заливать файлы, защищенные авторскими правами, а также файлы нелегального содержания!


    _________________
    [Профиль] [ЛС]
    Показать сообщения:    
    Ответить на тему

    Текущее время: Сегодня, в 00:07

    Часовой пояс: GMT + 2



    Вы не можете начинать темы
    Вы не можете отвечать на сообщения
    Вы не можете редактировать свои сообщения
    Вы не можете удалять свои сообщения
    Вы не можете голосовать в опросах
    Вы не можете прикреплять файлы к сообщениям
    Вы не можете скачивать файлы