BitTorrentTracker PerecTracker.org
BitTorrentTracker PerecTracker.org
    
Регистрация  ·  Вход
 
 · 
Забыли пароль?

  • Белоснежка / Snow White (Тошиюки Хирума, Такаши / Toshiyuki Hiruma, Takashi [1995, Анимация, сказка, VHSRip] Dub

    Ответить на тему
     
    Автор Сообщение

    rechyn

    Создавать темы 08-Дек-2015 23:07

           

    [Цитировать]

    Белоснежка / Snow White
    Страна: США, Япония
    Жанр: Анимация, сказка
    Продолжительность: 00:47:37
    Год выпуска: 1995
    Перевод: Профессиональный (дублированный)
    Русские субтитры: нет
    Режиссёр: Тошиюки Хирума, Такаши / Toshiyuki Hiruma, Takashi
    Роли озвучивали: Тони Эйл, Нэйтан Эсвелл, Чера Бэйли, Кэтлин Барр, Гари Чок, Лиллиэн Карлсон, Йен Джеймс Корлетт, Майкл Донован, Кент Галли, Фил Хэйес, Роджер Келли, Эллен Кеннеди
    Описание: Прелестная девочка, получившая своё имя за необычайно белую кожу, несчастна потому, что её мама умерла, а в мачехи досталась злобная завистливая женщина. Она никак не может смириться с тем, что падчерица превосходит её красотой, и строит козни против беззащитной доброй малышки. Но у Белоснежки много друзей, которые всегда готовы прийти к ней на помощь в трудную минуту. Заботливые и хлопотливые гномы не дадут обидеть свою любимицу даже жене короля…
    Семпл http://sendfile.su/1029241
    Качество: VHSRip
    Формат: MPG
    Видео: 720x480 (4:3), 29.970 fps, MPEG-2 Video, ~6000 Kbps, 0.579 bits/pixel
    Аудио: 48.0 KHz, MPEG-1 Audio layer 2, 2 ch, 224 Kbps
    Субтитры: Отсутствуют

    Подробные технические данные

    ОбщееПолное имя : F:\КИНО\Мультфильмы\Белоснежка\Белоснежка.mpgФормат : MPEG-PSРазмер файла : 2,14 ГбайтПродолжительность : 47 м.Общий поток : 6443 Кбит/секБиблиотека кодирования : honestech
    ВидеоИдентификатор : 224 (0xE0)Формат : MPEG VideoВерсия формата : Version 2Профиль формата : Main@MainПараметр BVOP формата : ДаПараметр матрицы формата : По умолчаниюПараметр GOP формата : M=3, N=15Продолжительность : 47 м.Битрейт : 6090 Кбит/секМаксимальный битрейт : 6000 Кбит/секШирина : 720 пикселейВысота : 480 пикселейСоотношение сторон : 4:3Частота кадров : 29,970 кадров/секСтандарт вещания : NTSCЦветовое пространство : YUVСубдискретизация насыщенности : 4:2:0Битовая глубина : 8 битТип развёртки : ПрогрессивнаяМетод сжатия : С потерямиБит/(Пиксели*Кадры) : 0.588Временной код первого кадра : 00:00:00:00Оригинал временного кода : Group of pictures headerРазмер потока : 2,03 Гбайт (95%)Библиотека кодирования : honestechОсновные цвета : BT.470 System MХарактеристики трансфера : BT.470 System MКоэффициенты матрицы : BT.601
    АудиоИдентификатор : 192 (0xC0)Формат : MPEG AudioВерсия формата : Version 1Профиль формата : Layer 2Продолжительность : 47 м.Вид битрейта : ПостоянныйБитрейт : 224 Кбит/секКаналы : 2 каналаЧастота : 48,0 КГцМетод сжатия : С потерямиЗадержка видео : -33 мс.Размер потока : 76,3 Мбайт (3%)

    Скриншоты

    Обложка VHS

    Скачать .torrent

    Скачать торрент-файл бесплатно и на максимальной скорости!

    Как скачивать? · Что такое торрент? · Рейтинг и ограничения

    !ВНИМАНИЕ!
    Сайт не распространяет и не хранит электронные версии произведений, а занимается лишь лишь предоставлением доступа к создаваемому пользователями каталогу ссылок на торрент-файлы, которые содержат только списки хеш-сумм, убедительная просьба с жалобами обращаться напрямую к пользователю. Файлы для обмена на трекере предоставлены пользователями сайта, и администрация не несёт ответственности за их содержание. Просьба не заливать файлы, защищенные авторскими правами, а также файлы нелегального содержания!


    _________________
    [Профиль] [ЛС]
    Показать сообщения:    
    Ответить на тему

    Текущее время: Сегодня, в 09:50

    Часовой пояс: GMT + 2



    Вы не можете начинать темы
    Вы не можете отвечать на сообщения
    Вы не можете редактировать свои сообщения
    Вы не можете удалять свои сообщения
    Вы не можете голосовать в опросах
    Вы не можете прикреплять файлы к сообщениям
    Вы не можете скачивать файлы