BitTorrentTracker PerecTracker.org
BitTorrentTracker PerecTracker.org
    
Регистрация  ·  Вход
 
 · 
Забыли пароль?

  • Корабль сокровищ / Janosch: Komm, wir finden einen Schatz (Ирина Пробост / Irina Probost) [2012, детский, семейный, приключения, SATRip] Dub

    Ответить на тему
     
    Автор Сообщение

    rechyn

    Создавать темы 08-Дек-2015 23:07

           

    [Цитировать]

    Корабль сокровищ / Janosch: Komm, wir finden einen Schatz
    Страна: Германия, Papa Löwe Filmproduk
    Жанр: детский, семейный, приключения
    Продолжительность: 01:06:49
    Год выпуска: 2012
    Перевод: Профессиональный (дублированный)
    Русские субтитры: нет
    Режиссёр: Ирина Пробост / Irina Probost
    Описание: Старая карта сокровищ, верные друзья и захватывающие приключения! Однажды на рыбалке тигр и медведь вылавливают старую карту сокровищ. Они не верят своему счастью! Но тут же появляется соперник-пёс, который тоже мечтает посмотреть на древнюю карту. Защищая ценный улов, тигр и медведь ввязываются с ним в драку, в результате которой карта рвется пополам, и часть ее уносит ветром... Теперь друзьям нужно отыскать потерявшуюся половину карты, и сделать это будет совсем непросто. Только затем они смогут отправиться на охоту за сокровищами, полную трудностей и сюрпризов: друзья повстречают перепуганного носорога, попадут в опасное болото, познакомятся с маленькой разбойницей и, наконец, доберутся до замерзшего океана со старым пиратским кораблем. Но самый важный урок, который они вынесут из всех своих приключений, таков: дружба ценнее всех сокровищ мира!
    Семпл: http://sendfile.su/1034140
    Качество: SATRip
    Формат: AVI
    Видео: Xvid, 720x400, 25fps, 2 050 Kbps
    Аудио: AC3, 48000Hz, stereo, 192kbps
    Субтитры: отсутствуют

    Подробные технические данные

    C:\Users\Dmitriy\Documents\Корабль сокровищ.2012.XviD.SATRip.avi General Complete name : C:\Users\Dmitriy\Documents\Корабль сокровищ.2012.XviD.SATRip.avi Format : AVI Format/Info : Audio Video Interleave File size : 1.05 GiB Duration : 1h 6mn Overall bit rate : 2 252 Kbps Movie name : Janosch: Komm, wir finden einen Schatz Director : SATRip by Thunder Writing application : VirtualDubMod 1.5.10.3 | www.virtualdub-fr.org || (build 2550/release) Original source form/Name : Cartoon Video #0 ID : 0 Format : MPEG-4 Visual Format profile : Advanced Simple@L5 Format settings, BVOP : Yes Format settings, QPel : No Format settings, GMC : No warppoints Format settings, Matrix : Default (H.263) Codec ID : XVID Codec ID/Hint : XviD Duration : 1h 6mn Bit rate : 2 050 Kbps Width : 720 pixels Height : 400 pixels Display aspect ratio : 16:9 Frame rate : 25.000 fps Color space : YUV Chroma subsampling : 4:2:0 Bit depth : 8 bits Scan type : Progressive Bits/(Pixel*Frame) : 0.285 Stream size : 980 MiB (91%) Writing library : XviD 1.2.1 (UTC 2008-12-04) Audio #1 ID : 1 Format : AC-3 Format/Info : Audio Coding 3 Mode extension : CM (complete main) Codec ID : 2000 Duration : 1h 6mn Bit rate mode : Constant Bit rate : 192 Kbps Channel(s) : 2 channels Channel positions : Front: L R Sampling rate : 48.0 KHz Bit depth : 16 bits Stream size : 91.8 MiB (9%) Alignment : Split accross interleaves Interleave, duration : 40 ms (1.00 video frame) Interleave, preload duration : 500 ms

    Скриншоты


    Скачать .torrent

    Скачать торрент-файл бесплатно и на максимальной скорости!

    Как скачивать? · Что такое торрент? · Рейтинг и ограничения

    !ВНИМАНИЕ!
    Сайт не распространяет и не хранит электронные версии произведений, а занимается лишь лишь предоставлением доступа к создаваемому пользователями каталогу ссылок на торрент-файлы, которые содержат только списки хеш-сумм, убедительная просьба с жалобами обращаться напрямую к пользователю. Файлы для обмена на трекере предоставлены пользователями сайта, и администрация не несёт ответственности за их содержание. Просьба не заливать файлы, защищенные авторскими правами, а также файлы нелегального содержания!


    _________________
    [Профиль] [ЛС]
    Показать сообщения:    
    Ответить на тему

    Текущее время: Сегодня, в 09:48

    Часовой пояс: GMT + 2



    Вы не можете начинать темы
    Вы не можете отвечать на сообщения
    Вы не можете редактировать свои сообщения
    Вы не можете удалять свои сообщения
    Вы не можете голосовать в опросах
    Вы не можете прикреплять файлы к сообщениям
    Вы не можете скачивать файлы