Register  ·  Log in
Forgot password?

  • Ханнес и мышиный шериф / Die Tigerenten Bande (Ирина Пробост / Irina Probost) [2011 г., Германия, мультфильм, детский, семейный, DVB] Dub

    Reply to topic
    Author Message


    Post 09-Dec-2015 00:06



    Ханнес и мышиный шериф / Die Tigerenten Bande
    Год выпуска: 2011
    Страна: Германия, Papa Löwe Filmproduktion Gmbh
    Жанр: мультфильм, детский, семейный
    Продолжительность: 01:04:50
    Перевод: профессиональный (дублированный) по заказу ЗАО «Первый канал. Всемирная сеть»
    Русские субтитры: нет
    Режиссёр: Ирина Пробост / Irina Probost
    Описание: мультфильм о новых приключениях Ханнеса и его друзей из банды «Тигровая утка».
    На сей раз Ханнесу и его друзьям предстоит сразиться со злобным мышиный шерифом Браунингом, мечтающим заполучить талисман банды — тигровую утку. Он заманивает друзей в ловушку, где ему удается отнять у них желанный талисман. Теперь только дуэль человека и мыши может разрешить конфликт и вернуть друзьям тигровую утку. Но еще никому не удавалось победить мышиного шерифа в поединке... В ход идут смелось, находчивость и трюк с переодеванием!
    Доп. информация:

    Релиз группы:
    Трансляция спутникового канала:

    Качество видео: DVB
    Формат видео: MPEG-PS
    Видео: MPEG2 Video, 720x576 (4:3), 25 fps, 3200 kbps
    Аудио: MPEG Audiо, 2 сh, 48 kHz, 192 kbps


    Complete name : D:\Ханнес и мышиный шериф. (2011)_DVB by SLuMeP.mpg
    Format : MPEG-PS
    File size : 1.56 GiB
    Duration : 1h 4mn
    Overall bit rate mode : Variable
    Overall bit rate : 3 454 Kbps
    ID : 224 (0xE0)
    Format : MPEG Video
    Format version : Version 2
    Format profile : Main@Main
    Format settings, BVOP : No
    Format settings, Matrix : Custom
    Format settings, GOP : M=3, N=12
    Duration : 1h 4mn
    Bit rate mode : Variable
    Bit rate : 3 193 Kbps
    Maximum bit rate : 5 000 Kbps
    Width : 720 pixels
    Height : 576 pixels
    Display aspect ratio : 4:3
    Frame rate : 25.000 fps
    Standard : PAL
    Color space : YUV
    Chroma subsampling : 4:2:0
    Bit depth : 8 bits
    Scan type : Interlaced
    Scan order : Top Field First
    Compression mode : Lossy
    Bits/(Pixel*Frame) : 0.308
    Time code of first frame : 00:00:00:00
    Time code source : Group of pictures header
    Stream size : 1.45 GiB (92%)
    ID : 192 (0xC0)
    Format : MPEG Audio
    Format version : Version 1
    Format profile : Layer 2
    Duration : 1h 4mn
    Bit rate mode : Constant
    Bit rate : 192 Kbps
    Channel(s) : 2 channels
    Sampling rate : 48.0 KHz
    Compression mode : Lossy
    Stream size : 89.1 MiB (6%)


    Download .torrent

    Download free and at maximum speed!

    How to Download? · What is a torrent? · Ratings and Limitations

    The site does not extend and does not store electronic(digital) versions of products, and only gives access to a reference catalogue created by users on torrent-files which contain only lists of the hash-sums, the earnest entreaty, with complaints(abuse) to access directly to the user. Files for an exchange on tracker are given by users of a site, and the administration does not bear the responsibility for their maintenance. The request to not fill in the files protected by copyrights, and also files of the illegal maintenance!

    [Profile] [PM]
    Display posts from previous:    
    Reply to topic

    The time now is: Today 08:59

    All times are GMT + 3 Hours

    You cannot post new topics in this forum
    You cannot reply to topics in this forum
    You cannot edit your posts in this forum
    You cannot delete your posts in this forum
    You cannot vote in polls in this forum
    You cannot attach files in this forum
    You cannot download files in this forum