BitTorrentTracker PerecTracker.org
BitTorrentTracker PerecTracker.org
    
Регистрация  ·  Вход
 
 · 
Забыли пароль?

  • Ханнес и мышиный шериф / Die Tigerenten Bande (Ирина Пробост / Irina Probost) [2011 г., Германия, мультфильм, детский, семейный, DVB] Dub

    Ответить на тему
     
    Автор Сообщение

    rechyn

    Создавать темы 08-Дек-2015 23:06

           

    [Цитировать]

    Ханнес и мышиный шериф / Die Tigerenten Bande
    Год выпуска: 2011
    Страна: Германия, Papa Löwe Filmproduktion Gmbh
    Жанр: мультфильм, детский, семейный
    Продолжительность: 01:04:50
    Перевод: профессиональный (дублированный) по заказу ЗАО «Первый канал. Всемирная сеть»
    Русские субтитры: нет
    Режиссёр: Ирина Пробост / Irina Probost
    Описание: мультфильм о новых приключениях Ханнеса и его друзей из банды «Тигровая утка».
    На сей раз Ханнесу и его друзьям предстоит сразиться со злобным мышиный шерифом Браунингом, мечтающим заполучить талисман банды — тигровую утку. Он заманивает друзей в ловушку, где ему удается отнять у них желанный талисман. Теперь только дуэль человека и мыши может разрешить конфликт и вернуть друзьям тигровую утку. Но еще никому не удавалось победить мышиного шерифа в поединке... В ход идут смелось, находчивость и трюк с переодеванием!
    Доп. информация:

    Релиз группы:
    Трансляция спутникового канала:

    Семпл: https://yadi.sk/i/lRwNqS_PcHVPW
    Качество видео: DVB
    Формат видео: MPEG-PS
    Видео: MPEG2 Video, 720x576 (4:3), 25 fps, 3200 kbps
    Аудио: MPEG Audiо, 2 сh, 48 kHz, 192 kbps

    MediaInfo

    General
    Complete name : D:\Ханнес и мышиный шериф. (2011)_DVB by SLuMeP.mpg
    Format : MPEG-PS
    File size : 1.56 GiB
    Duration : 1h 4mn
    Overall bit rate mode : Variable
    Overall bit rate : 3 454 Kbps
    Video
    ID : 224 (0xE0)
    Format : MPEG Video
    Format version : Version 2
    Format profile : Main@Main
    Format settings, BVOP : No
    Format settings, Matrix : Custom
    Format settings, GOP : M=3, N=12
    Duration : 1h 4mn
    Bit rate mode : Variable
    Bit rate : 3 193 Kbps
    Maximum bit rate : 5 000 Kbps
    Width : 720 pixels
    Height : 576 pixels
    Display aspect ratio : 4:3
    Frame rate : 25.000 fps
    Standard : PAL
    Color space : YUV
    Chroma subsampling : 4:2:0
    Bit depth : 8 bits
    Scan type : Interlaced
    Scan order : Top Field First
    Compression mode : Lossy
    Bits/(Pixel*Frame) : 0.308
    Time code of first frame : 00:00:00:00
    Time code source : Group of pictures header
    Stream size : 1.45 GiB (92%)
    Audio
    ID : 192 (0xC0)
    Format : MPEG Audio
    Format version : Version 1
    Format profile : Layer 2
    Duration : 1h 4mn
    Bit rate mode : Constant
    Bit rate : 192 Kbps
    Channel(s) : 2 channels
    Sampling rate : 48.0 KHz
    Compression mode : Lossy
    Stream size : 89.1 MiB (6%)

    Скриншоты


    Скачать .torrent

    Скачать торрент-файл бесплатно и на максимальной скорости!

    Как скачивать? · Что такое торрент? · Рейтинг и ограничения

    !ВНИМАНИЕ!
    Сайт не распространяет и не хранит электронные версии произведений, а занимается лишь лишь предоставлением доступа к создаваемому пользователями каталогу ссылок на торрент-файлы, которые содержат только списки хеш-сумм, убедительная просьба с жалобами обращаться напрямую к пользователю. Файлы для обмена на трекере предоставлены пользователями сайта, и администрация не несёт ответственности за их содержание. Просьба не заливать файлы, защищенные авторскими правами, а также файлы нелегального содержания!


    _________________
    [Профиль] [ЛС]
    Показать сообщения:    
    Ответить на тему

    Текущее время: Сегодня, в 14:31

    Часовой пояс: GMT + 2



    Вы не можете начинать темы
    Вы не можете отвечать на сообщения
    Вы не можете редактировать свои сообщения
    Вы не можете удалять свои сообщения
    Вы не можете голосовать в опросах
    Вы не можете прикреплять файлы к сообщениям
    Вы не можете скачивать файлы