Register  ·  Log in
Forgot password?

  • Мумия. В поисках потерянных свитков / The Mummy: Quest for Lost Scrolls (Эдди Хочинс / Eddy Houchins) [2002 г., США, мультфильм, детский, семейный, DVB] Dub

    Reply to topic
    Author Message


    Post 09-Dec-2015 00:06



    Мумия. В поисках потерянных свитков / The Mummy: Quest for lost scrolls
    Год выпуска: 2002
    Страна: США, Universal Studios
    Жанр: мультфильм, детский, семейный
    Продолжительность: 01:00:25
    Перевод: Профессиональный (дублированный) - Объединение "Русский дубляж" по заказу СТС, 2010 год
    Русские субтитры: нет
    Режиссёр: Эдди Хочинс / Eddy Houchins
    Роли дублировали: Денис Некрасов, Ольга Шорохова, Ирина Гришина, Диомид Виноградов, Андрей Симанов
    Описание: одиннадцатилетний Алекс вечно попадает в истории! Но о таких событиях он даже не мог мечтать. В центре сюжета увлекательного мультфильма – приключения мальчика и его родителей, которые должны отыскать древние свитки. Письмена могут помочь разгадать удивительную тайну. Но на пути героев встает мумия
    Доп. информация: Запись (захват) спутниковой трансляции канала "Дисней". Конечные титры немного ускорены.
    Релиз группы:
    Качество видео: DVB
    Формат видео: MPEG-PS
    Видео: MPEG2 Video, 720x576 (4:3), 25 fps, 2500 kbps
    Аудио: MPEG Audiо, 2 сh, 48 kHz, 192 kbps


    Complete name : D:\Мумия. В поисках потерянных свитков. (2002)_DVB by SLuMeP.mpg
    Format : MPEG-PS
    File size : 1.15 GiB
    Duration : 1h 0mn
    Overall bit rate mode : Variable
    Overall bit rate : 2 718 Kbps
    Writing library : (dvd5: Jun 16 2014)
    ID : 224 (0xE0)
    Format : MPEG Video
    Format version : Version 2
    Format profile : Main@Main
    Format settings, BVOP : Yes
    Format settings, Matrix : Custom
    Format settings, GOP : Variable
    Duration : 1h 0mn
    Bit rate mode : Variable
    Bit rate : 2 472 Kbps
    Maximum bit rate : 15.0 Mbps
    Width : 720 pixels
    Height : 576 pixels
    Display aspect ratio : 4:3
    Frame rate : 25.000 fps
    Standard : PAL
    Color space : YUV
    Chroma subsampling : 4:2:0
    Bit depth : 8 bits
    Scan type : Interlaced
    Scan order : Top Field First
    Compression mode : Lossy
    Bits/(Pixel*Frame) : 0.238
    Time code of first frame : 00:00:00:00
    Time code source : Group of pictures header
    Stream size : 1.04 GiB (91%)
    Source encoded stream size : (dvd5: Jun 16 2014)
    Writing library : (dvd5: Jun 16 2014)
    ID : 192 (0xC0)
    Format : MPEG Audio
    Format version : Version 1
    Format profile : Layer 2
    Duration : 1h 0mn
    Bit rate mode : Constant
    Bit rate : 192 Kbps
    Channel(s) : 2 channels
    Sampling rate : 48.0 KHz
    Compression mode : Lossy
    Delay relative to video : -80ms
    Stream size : 83.0 MiB (7%)


    Download .torrent

    Download free and at maximum speed!

    How to Download? · What is a torrent? · Ratings and Limitations

    The site does not extend and does not store electronic(digital) versions of products, and only gives access to a reference catalogue created by users on torrent-files which contain only lists of the hash-sums, the earnest entreaty, with complaints(abuse) to access directly to the user. Files for an exchange on tracker are given by users of a site, and the administration does not bear the responsibility for their maintenance. The request to not fill in the files protected by copyrights, and also files of the illegal maintenance!

    [Profile] [PM]
    Display posts from previous:    
    Reply to topic

    The time now is: Today 22:22

    All times are GMT + 3 Hours

    You cannot post new topics in this forum
    You cannot reply to topics in this forum
    You cannot edit your posts in this forum
    You cannot delete your posts in this forum
    You cannot vote in polls in this forum
    You cannot attach files in this forum
    You cannot download files in this forum