BitTorrentTracker PerecTracker.org
BitTorrentTracker PerecTracker.org
    
Регистрация  ·  Вход
 
 · 
Забыли пароль?

  • Споукли — квадратная тыква / Spookley the Square Pumpkin (Бэрни Денк / Bernie Denk) [2004, мультфильм, детский, семейный, DVB] MVO

    Ответить на тему
     
    Автор Сообщение

    rechyn

    Создавать темы 08-Дек-2015 23:06

           

    [Цитировать]

    Споукли — квадратная тыква / Spookley the Square Pumpkin
    Страна: США, Holiday Hill Farm
    Жанр: мультфильм, детский, семейный
    Продолжительность: 00:43:49
    Год выпуска: 2004
    Перевод: Профессиональный (многоголосый закадровый)
    Русские субтитры: нет
    Режиссёр: Бэрни Денк / Bernie Denk
    Описание: Нелегко быть квадратной тыквой, но малыш Споукли не унывал и стал настоящим героем!
    Споукли — необычную тыкву квадратной формы — однажды обнаружили на грядке фермеры. Поначалу круглые тыквы дразнили Споукли за необычную форму, отчего ему становилось очень грустно. Позже наш герой подружился с тремя веселыми пауками, а чучело Джек позволил ему участвовать в соревнованиях, которые устраивали на ферме.
    Однажды во время урагана, разразившегося в поле, Споукли проявил свой истинный геройский характер и доброту — он спас круглые тыквы, которые раньше всегда дразнили его. В конце концов, фермер забрал квадратную тыкву домой: он положил ее на крыльцо, чтобы все овощи с поля видели своего героя.
    Семпл: http://sendfile.su/1043027
    Качество: DVB
    Формат: TS
    Видео: MPEG2 Video, 720x576 (4:3), 25 fps, 3368 kbps
    Аудио: MPEG Audiо, 2 сh, 48 kHz, 192 kbps
    Субтитры: отсутствуют

    Подробные технические данные

    C:\Temp\Споукли — квадратная тыква.DVB.Thunder.mpg General #0 ID : 0 Complete name : C:\Temp\Споукли — квадратная тыква.DVB.Thunder.mpg Format : MPEG-TS File size : 1.15 GiB Duration : 43mn 49s Overall bit rate : 3 747 Kbps Video #301 ID : 301 (0x12D) Menu ID : 1 (0x1) Format : MPEG Video Format version : Version 2 Format profile : Main@Main Format settings, BVOP : Yes Format settings, Matrix : Default Codec ID : 2 Duration : 43mn 49s Bit rate mode : Variable Bit rate : 3 368 Kbps Nominal bit rate : 5 000 Kbps Width : 720 pixels Height : 576 pixels Display aspect ratio : 4:3 Frame rate : 25.000 fps Standard : PAL Color space : YUV Chroma subsampling : 4:2:0 Bit depth : 8 bits Scan type : Interlaced Scan order : Top Field First Bits/(Pixel*Frame) : 0.325 Stream size : 1.03 GiB (90%) Audio #302 ID : 302 (0x12E) Menu ID : 1 (0x1) Format : MPEG Audio Format version : Version 1 Format profile : Layer 2 Codec ID : 3 Duration : 43mn 49s Bit rate mode : Constant Bit rate : 192 Kbps Channel(s) : 2 channels Sampling rate : 48.0 KHz Stream size : 60.2 MiB (5%)

    Скриншоты


    Скачать .torrent

    Скачать торрент-файл бесплатно и на максимальной скорости!

    Как скачивать? · Что такое торрент? · Рейтинг и ограничения

    !ВНИМАНИЕ!
    Сайт не распространяет и не хранит электронные версии произведений, а занимается лишь лишь предоставлением доступа к создаваемому пользователями каталогу ссылок на торрент-файлы, которые содержат только списки хеш-сумм, убедительная просьба с жалобами обращаться напрямую к пользователю. Файлы для обмена на трекере предоставлены пользователями сайта, и администрация не несёт ответственности за их содержание. Просьба не заливать файлы, защищенные авторскими правами, а также файлы нелегального содержания!


    _________________
    [Профиль] [ЛС]
    Показать сообщения:    
    Ответить на тему

    Текущее время: Сегодня, в 08:51

    Часовой пояс: GMT + 2



    Вы не можете начинать темы
    Вы не можете отвечать на сообщения
    Вы не можете редактировать свои сообщения
    Вы не можете удалять свои сообщения
    Вы не можете голосовать в опросах
    Вы не можете прикреплять файлы к сообщениям
    Вы не можете скачивать файлы