Register  ·  Log in
Forgot password?

  • Любимчики в поисках радуги / The Happets in the Rainbow Forest / La Tropa de Trapo en la selva del arcoiris (Алекс Кольс / Álex Colls) [2013 г., Испания, мультфильм, детский, семейный, DVB] Dub

    Reply to topic
    Author Message


    Post 09-Dec-2015 00:06



    Любимчики в поисках радуги / The Happets in the Rainbow Forest
    Год выпуска: 2013
    Страна: Испания, Abano Producións, Anera Films
    Жанр: мультфильм, детский, семейный
    Продолжительность: 01:07:57
    Перевод: профессиональный (дублированный) по заказу ЗАО «Первый канал. Всемирная сеть»
    Русские субтитры: нет
    Режиссёр: Алекс Кольс / Álex Colls
    Описание: на одной ферме живут веселые и дружные зверушки: собачка, теленок, свинка, медвежонок, жираф и птичка. Однажды друзья находят в лесу волшебную Радугу, с помощью которой отправляются в веселое и захватывающее путешествие в мир фантазий, где их ждет множество приключений. В пути им будут встречаться разные трудности, но если рядом с тобой настоящие друзья, то ничего не страшно!
    Доп. информация:

    Релиз группы:
    Трансляция спутникового канала:

    Качество видео: DVB
    Формат видео: MPEG-PS
    Видео: MPEG2 Video, 720x576 (4:3), 25 fps, 3100 kbps
    Аудио: MPEG Audiо, 2 сh, 48 kHz, 192 kbps


    Complete name : D:\Любимчики в поисках радуги. (2013)_DVB by SLuMeP.mpg
    Format : MPEG-PS
    File size : 1.60 GiB
    Duration : 1h 7mn
    Overall bit rate mode : Variable
    Overall bit rate : 3 372 Kbps
    ID : 224 (0xE0)
    Format : MPEG Video
    Format version : Version 2
    Format profile : Main@Main
    Format settings, BVOP : No
    Format settings, Matrix : Custom
    Format settings, GOP : M=3, N=12
    Duration : 1h 7mn
    Bit rate mode : Variable
    Bit rate : 3 113 Kbps
    Maximum bit rate : 5 000 Kbps
    Width : 720 pixels
    Height : 576 pixels
    Display aspect ratio : 4:3
    Frame rate : 25.000 fps
    Standard : PAL
    Color space : YUV
    Chroma subsampling : 4:2:0
    Bit depth : 8 bits
    Scan type : Interlaced
    Scan order : Top Field First
    Compression mode : Lossy
    Bits/(Pixel*Frame) : 0.300
    Time code of first frame : 00:00:00:00
    Time code source : Group of pictures header
    Stream size : 1.48 GiB (92%)
    ID : 192 (0xC0)
    Format : MPEG Audio
    Format version : Version 1
    Format profile : Layer 2
    Duration : 1h 7mn
    Bit rate mode : Constant
    Bit rate : 192 Kbps
    Channel(s) : 2 channels
    Sampling rate : 48.0 KHz
    Compression mode : Lossy
    Stream size : 93.3 MiB (6%)


    Download .torrent

    Download free and at maximum speed!

    How to Download? · What is a torrent? · Ratings and Limitations

    The site does not extend and does not store electronic(digital) versions of products, and only gives access to a reference catalogue created by users on torrent-files which contain only lists of the hash-sums, the earnest entreaty, with complaints(abuse) to access directly to the user. Files for an exchange on tracker are given by users of a site, and the administration does not bear the responsibility for their maintenance. The request to not fill in the files protected by copyrights, and also files of the illegal maintenance!

    [Profile] [PM]
    Display posts from previous:    
    Reply to topic

    The time now is: Today 11:20

    All times are GMT + 3 Hours

    You cannot post new topics in this forum
    You cannot reply to topics in this forum
    You cannot edit your posts in this forum
    You cannot delete your posts in this forum
    You cannot vote in polls in this forum
    You cannot attach files in this forum
    You cannot download files in this forum