BitTorrentTracker PerecTracker.org
BitTorrentTracker PerecTracker.org
    
Регистрация  ·  Вход
 
 · 
Забыли пароль?

  • Любимчики в поисках радуги / The Happets in the Rainbow Forest / La Tropa de Trapo en la selva del arcoiris (Алекс Кольс / Álex Colls) [2013 г., Испания, мультфильм, детский, семейный, DVB] Dub

    Ответить на тему
     
    Автор Сообщение

    rechyn

    Создавать темы 08-Дек-2015 23:06

           

    [Цитировать]

    Любимчики в поисках радуги / The Happets in the Rainbow Forest
    Год выпуска: 2013
    Страна: Испания, Abano Producións, Anera Films
    Жанр: мультфильм, детский, семейный
    Продолжительность: 01:07:57
    Перевод: профессиональный (дублированный) по заказу ЗАО «Первый канал. Всемирная сеть»
    Русские субтитры: нет
    Режиссёр: Алекс Кольс / Álex Colls
    Описание: на одной ферме живут веселые и дружные зверушки: собачка, теленок, свинка, медвежонок, жираф и птичка. Однажды друзья находят в лесу волшебную Радугу, с помощью которой отправляются в веселое и захватывающее путешествие в мир фантазий, где их ждет множество приключений. В пути им будут встречаться разные трудности, но если рядом с тобой настоящие друзья, то ничего не страшно!
    Доп. информация:

    Релиз группы:
    Трансляция спутникового канала:

    Семпл: https://yadi.sk/i/f5fipJCacaT7D
    Качество видео: DVB
    Формат видео: MPEG-PS
    Видео: MPEG2 Video, 720x576 (4:3), 25 fps, 3100 kbps
    Аудио: MPEG Audiо, 2 сh, 48 kHz, 192 kbps

    MediaInfo

    General
    Complete name : D:\Любимчики в поисках радуги. (2013)_DVB by SLuMeP.mpg
    Format : MPEG-PS
    File size : 1.60 GiB
    Duration : 1h 7mn
    Overall bit rate mode : Variable
    Overall bit rate : 3 372 Kbps
    Video
    ID : 224 (0xE0)
    Format : MPEG Video
    Format version : Version 2
    Format profile : Main@Main
    Format settings, BVOP : No
    Format settings, Matrix : Custom
    Format settings, GOP : M=3, N=12
    Duration : 1h 7mn
    Bit rate mode : Variable
    Bit rate : 3 113 Kbps
    Maximum bit rate : 5 000 Kbps
    Width : 720 pixels
    Height : 576 pixels
    Display aspect ratio : 4:3
    Frame rate : 25.000 fps
    Standard : PAL
    Color space : YUV
    Chroma subsampling : 4:2:0
    Bit depth : 8 bits
    Scan type : Interlaced
    Scan order : Top Field First
    Compression mode : Lossy
    Bits/(Pixel*Frame) : 0.300
    Time code of first frame : 00:00:00:00
    Time code source : Group of pictures header
    Stream size : 1.48 GiB (92%)
    Audio
    ID : 192 (0xC0)
    Format : MPEG Audio
    Format version : Version 1
    Format profile : Layer 2
    Duration : 1h 7mn
    Bit rate mode : Constant
    Bit rate : 192 Kbps
    Channel(s) : 2 channels
    Sampling rate : 48.0 KHz
    Compression mode : Lossy
    Stream size : 93.3 MiB (6%)

    Скриншоты


    Скачать .torrent

    Скачать торрент-файл бесплатно и на максимальной скорости!

    Как скачивать? · Что такое торрент? · Рейтинг и ограничения

    !ВНИМАНИЕ!
    Сайт не распространяет и не хранит электронные версии произведений, а занимается лишь лишь предоставлением доступа к создаваемому пользователями каталогу ссылок на торрент-файлы, которые содержат только списки хеш-сумм, убедительная просьба с жалобами обращаться напрямую к пользователю. Файлы для обмена на трекере предоставлены пользователями сайта, и администрация не несёт ответственности за их содержание. Просьба не заливать файлы, защищенные авторскими правами, а также файлы нелегального содержания!


    _________________
    [Профиль] [ЛС]
    Показать сообщения:    
    Ответить на тему

    Текущее время: Сегодня, в 16:24

    Часовой пояс: GMT + 2



    Вы не можете начинать темы
    Вы не можете отвечать на сообщения
    Вы не можете редактировать свои сообщения
    Вы не можете удалять свои сообщения
    Вы не можете голосовать в опросах
    Вы не можете прикреплять файлы к сообщениям
    Вы не можете скачивать файлы