BitTorrentTracker PerecTracker.org
BitTorrentTracker PerecTracker.org
    
Регистрация  ·  Вход
 
 · 
Забыли пароль?

  • Земля до Начала Времен 12: Великий день птиц / The Land Before Time XII: The Great Day of The Flyers (Чарльз Гросвенор / Charles Grosvenor) [2006, мультфильм, приключения, семейный, WEB-DLRip] Dub

    Ответить на тему
     
    Автор Сообщение

    rechyn

    Создавать темы 08-Дек-2015 23:06

           

    [Цитировать]

    Земля до Начала Времен 12: Великий день птиц / The Land Before Time XII: The Great Day of The Flyers-Страна: США
    Жанр: мультфильм, приключения, семейный
    Продолжительность: 01:20:22
    Год выпуска: 2006
    Перевод: Профессиональный (дублированный)
    Русские субтитры: нет-Режиссёр: Чарльз Гросвенор / Charles Grosvenor
    Сценарий: Джон Лой / John Loy, Джуди Фредберг / Judy Freudberg
    Продюсер: Чарльз Гросвенор / Charles Grosvenor, Дэниэл Дж. Уайли / Daniel J. Wiley
    Композитор: Кайл Кеннет Баттер / Kyle Kenneth Batter
    Художник: Фламарион Феррейра / Flamarion Ferreira
    Монтажер: Джей Бикссен / Jay Bixsen-Роли озвучивали:
    Джон Ингл (рассказчик / Cera's Dad, озвучка), Ник Прайс (Littlefoot, озвучка), Ария Ноэль Курзон (Ducky, озвучка), Роб Полсен (Spike / Mr. Clubtail / Guido, озвучка), Камрин Менхейм (Tria, озвучка), Энди МакЭфи (Cera, озвучка), Джефф Беннетт (Petrie / Petrie's Sibbling #2, озвучка), Ника Футтерман (Petrie's Sibbling #1 / Tricia, озвучка), Сьюзэн Блу (Petrie's Sibbling #3, озвучка), Тресс МакНилл (Petrie's Mom, озвучка).-DVD в США: $ 3 913 169-Мировая премьера: 23 ноября 2006
    Релиз на DVD: 27 августа 2012, «Новый Диск»
    -Описание:
    Веселье начинает свой полет в компании наших доисторических друзей Литлфута, Черы, Петры, Спайка и Даки в новом парящем приключении! «Великий День Птиц» - важное событие в жизни всех летающих Великой Долины - совсем скоро наступит, но независимый свободный стиль Петры не позволяет герою вписаться в стаю своих близких. Друзья стараются помочь ему, но новичок по имени Гуйдо дает самый полезный совет - иногда лучше оставаться «самим собой». Никто никогда не видел такого как Гуйдо, и когда команда пытается выяснить, к какому виду динозавров он принадлежит, они неожиданно оказываются вовлечены в волнующее таинственное путешествие.-Рейтинг
    kinopoisk.ru: 7.130 (321)
    imdb.com: 6.00 (769)
    MPAA: G - Нет возрастных ограничений-Качество: WEB-DLRip | исх. ☞ « Sunny / / MPEG-4 AVC. 720p WEB-DL »
    Формат: AVI ///СОВМЕСТИМО С БЫТОВЫМИ ПЛЕЕРАМИ/// → //SAMPLE//
    Видео: 704x400 (1.76:1), 23.976 fps, XviD build 65 ~2209 kbps avg, 0.33 bit/pixel
    Аудио: 48.0 kHz, AC3 Dolby Digital, 3/2 (L,C,R,l,r) + LFE ch, ~384.00 kbps avg | DUB
    Субтитры: Отсутствуют
    Размер: 1496.42 Mb (1/3 DVD-R)
    -

    Подробные технические данные

    ОбщееПолное имя : A:\Фильмы\The.Land.Before.Time.XII.The.Great.Day.of.the.Flyers.2006.WEB-DLRip.XviD.1,46Gb.AC3.aviФормат : AVIФормат/Информация : Audio Video InterleaveРазмер файла : 1,46 ГбайтПродолжительность : 1 ч. 20 м.Общий поток : 2603 Кбит/секПрограмма кодирования : VirtualDubMod 1.5.10.3 | www.virtualdub-fr.org || (build 2550/release)Библиотека кодирования : VirtualDubMod build 2550/release
    ВидеоИдентификатор : 0Формат : MPEG-4 VisualПрофиль формата : Advanced Simple@L5Параметр BVOP формата : 1Параметр QPel формата : НетПараметр GMC формата : Без точки переходаПараметр матрицы формата : ВыборочнаяИдентификатор кодека : XVIDИдентификатор кодека/Подсказка : XviDПродолжительность : 1 ч. 20 м.Битрейт : 2210 Кбит/секШирина : 704 пикселяВысота : 400 пикселейСоотношение сторон : 1.76:1Частота кадров : 23,976 кадра/секЦветовое пространство : YUVСубдискретизация насыщенности : 4:2:0Битовая глубина : 8 битТип развёртки : ПрогрессивнаяМетод сжатия : С потерямиБит/(Пиксели*Кадры) : 0.327Размер потока : 1,24 Гбайт (85%)Библиотека кодирования : XviD 65
    АудиоИдентификатор : 1Формат : AC-3Формат/Информация : Audio Coding 3Расширение режима : CM (complete main)Параметр Endianness формата : BigИдентификатор кодека : 2000Продолжительность : 1 ч. 20 м.Вид битрейта : ПостоянныйБитрейт : 384 Кбит/секКаналы : 6 каналовРасположение каналов : Front: L C R, Side: L R, LFEЧастота : 48,0 КГцБитовая глубина : 16 битМетод сжатия : С потерямиРазмер потока : 221 Мбайт (15%)Выравнивание : Соединение по промежуткамПродолжительность промежутка : 42 мс. (1,00 видеокадр)Время предзагрузки промежутка : 512 мс.

    Скриншоты

    Скачать .torrent

    Скачать торрент-файл бесплатно и на максимальной скорости!

    Как скачивать? · Что такое торрент? · Рейтинг и ограничения

    !ВНИМАНИЕ!
    Сайт не распространяет и не хранит электронные версии произведений, а занимается лишь лишь предоставлением доступа к создаваемому пользователями каталогу ссылок на торрент-файлы, которые содержат только списки хеш-сумм, убедительная просьба с жалобами обращаться напрямую к пользователю. Файлы для обмена на трекере предоставлены пользователями сайта, и администрация не несёт ответственности за их содержание. Просьба не заливать файлы, защищенные авторскими правами, а также файлы нелегального содержания!


    _________________
    [Профиль] [ЛС]
    Показать сообщения:    
    Ответить на тему

    Текущее время: Сегодня, в 06:03

    Часовой пояс: GMT + 2



    Вы не можете начинать темы
    Вы не можете отвечать на сообщения
    Вы не можете редактировать свои сообщения
    Вы не можете удалять свои сообщения
    Вы не можете голосовать в опросах
    Вы не можете прикреплять файлы к сообщениям
    Вы не можете скачивать файлы