BitTorrentTracker PerecTracker.org
BitTorrentTracker PerecTracker.org
    
Регистрация  ·  Вход
 
 · 
Забыли пароль?

  • Клуб Винкс: Тайна морской бездны / Winx Club: Il mistero degli abissi (Иджинио Страффи / Iginio Straffi) [2014, Приключения, комедия, семейный, фэнтези, WEB-DLRip] Dub (iTunes)

    Ответить на тему
     
    Автор Сообщение

    rechyn

    Создавать темы 08-Дек-2015 23:06

           

    [Цитировать]

    Клуб Винкс: Тайна морской бездны / Winx Club: Il mistero degli abissi
    Страна: Италия
    Жанр: Приключения, комедия, семейный, фэнтези
    Продолжительность: 01:22:39
    Год выпуска: 2014
    Перевод: Профессиональный (дублированный) [iTunes]
    Русские субтитры: нет
    Режиссёр: Иджинио Страффи / Iginio Straffi
    Роли озвучивали: Екатерина Семенова, Денис Беспалый, Сергей Чихачев
    Описание: Трикс вернулись! Они хотят завладеть Императорским Троном, чтобы активировать огромную силу, но случайно будят Политею — злую нимфу, до сих пор проклятую тремя Древними Ведьмами Прородительницами. Она готова заключить сделку с Трикс. Политея рассказывает им о том, что для активации Трона им нужно освободить Тританнуса из Обливиона, но до этого им нужно заполучить жизненную силу Короля. Трикс сразу подумали о Скае, который является королём Эраклиона и к тому же женихом Блум. Ведьмы отправляются в Гардению, где Блум и Скай проводят время вместе.
    Сэмпл
    Качество: WEB-DLRip
    Формат: AVI
    Видео: 688x384 (1.79:1), 24.000 fps, XviD build 73 ~1123 kbps avg, 0.18 bit/pixel
    Аудио: 48 kHz, MPEG Layer 3, 2 ch, ~128 kbps avg
    Субтитры: отсутствуют

    Подробные технические данные

    GeneralComplete name : C:\Users\Вячеслав\Downloads\Klub.Vinks.Tajna.Morskoj.Bezdni.2014.WEB-DLRip.by Vovan366(ExKinoRay).avi.aviFormat : AVIFormat/Info : Audio Video InterleaveFile size : 744 MiBDuration : 1h 22mnOverall bit rate mode : VariableOverall bit rate : 1 258 KbpsWriting application : VirtualDubMod 1.5.10.3 | www.virtualdub-fr.org || (build 2550/release)Writing library : VirtualDubMod build 2550/release
    VideoID : 0Format : MPEG-4 VisualFormat profile : Advanced Simple@L5Format settings, BVOP : 2Format settings, QPel : NoFormat settings, GMC : No warppointsFormat settings, Matrix : CustomCodec ID : XVIDCodec ID/Hint : XviDDuration : 1h 22mnBit rate : 1 124 KbpsWidth : 688 pixelsHeight : 384 pixelsDisplay aspect ratio : 16:9Frame rate : 24.000 fpsColor space : YUVChroma subsampling : 4:2:0Bit depth : 8 bitsScan type : ProgressiveCompression mode : LossyBits/(Pixel*Frame) : 0.177Stream size : 664 MiB (89%)Writing library : XviD 73
    AudioID : 1Format : MPEG AudioFormat version : Version 1Format profile : Layer 3Codec ID : 55Codec ID/Hint : MP3Duration : 1h 22mnBit rate mode : ConstantBit rate : 128 KbpsChannel(s) : 2 channelsSampling rate : 48.0 KHzCompression mode : LossyStream size : 71.7 MiB (10%)Alignment : Aligned on interleavesInterleave, duration : 40 ms (1.00 video frame)Interleave, preload duration : 504 msWriting library : LAME3.99rEncoding settings : -m j -V 4 -q 2 -lowpass 17 --abr 128

    Скриншоты

    Скачать .torrent

    Скачать торрент-файл бесплатно и на максимальной скорости!

    Как скачивать? · Что такое торрент? · Рейтинг и ограничения

    !ВНИМАНИЕ!
    Сайт не распространяет и не хранит электронные версии произведений, а занимается лишь лишь предоставлением доступа к создаваемому пользователями каталогу ссылок на торрент-файлы, которые содержат только списки хеш-сумм, убедительная просьба с жалобами обращаться напрямую к пользователю. Файлы для обмена на трекере предоставлены пользователями сайта, и администрация не несёт ответственности за их содержание. Просьба не заливать файлы, защищенные авторскими правами, а также файлы нелегального содержания!


    _________________
    [Профиль] [ЛС]
    Показать сообщения:    
    Ответить на тему

    Текущее время: Сегодня, в 06:10

    Часовой пояс: GMT + 2



    Вы не можете начинать темы
    Вы не можете отвечать на сообщения
    Вы не можете редактировать свои сообщения
    Вы не можете удалять свои сообщения
    Вы не можете голосовать в опросах
    Вы не можете прикреплять файлы к сообщениям
    Вы не можете скачивать файлы