BitTorrentTracker PerecTracker.org
BitTorrentTracker PerecTracker.org
    
Регистрация  ·  Вход
 
 · 
Забыли пароль?

  • Мой маленький пони: Девочки из Эквестрии - Радужный рок / My Little Pony: Equestria Girls - Rainbow Rocks (Джэйсон Тиссен / Jayson Thiessen, Иши Руделл / Ishi Rudell) [2014, Приключения, семейный, фэнтези, BDRip] VO (Трина Дубовицкая, ALEKS KV)

    Ответить на тему
     
    Автор Сообщение

    rechyn

    Создавать темы 08-Дек-2015 23:06

           

    [Цитировать]

    Мой маленький пони: Девочки из Эквестрии - Радужный рок / My Little Pony: Equestria Girls - Rainbow RocksСтрана: США, Канада
    Жанр: Приключения, комедия, семейный, фэнтези
    Продолжительность: 01:13:20
    Год выпуска: 2014
    Перевод 1: Одноголосый закадровый (Трина Дубовицкая) (Сэмпл)
    Перевод 2: Одноголосый закадровый (ALEKS KV)
    Русские субтитры: нет
    Режиссёр: Джэйсон Тиссен / Jayson Thiessen, Иши Руделл / Ishi Rudell
    Роли озвучивали: Тара Стронг, Эшли Болл, Андреа Либман, Табита Сен-Жермен, Кэти Уэслак, Кэтлин Барр и другие.
    Описание: В школе Кантерлот Хай состоится музыкальное представление, в котором решают поучаствовать Рэйнбоу Дэш, Эпплджек, Пинки Пай, Рэрити и Флаттершай со своей новой группой - "The Rainbooms". Но когда на сцене появляется новая группа девочек с броским названием "The Dazzlings", всё очень быстро превращается из дружеского состязания в настоящую Битву Групп. В то время как между противниками нарастает напряжение, исправившаяся Сансет Шиммер узнаёт, что девочки из группы "The Dazzlings" вовсе не так просты, как могут показаться, и преследуют цели куда более зловещие, чем завоевание титула Лучшей Группы Кантерлот Хай. "The Rainbooms" обращаются за помощью к Принцессе Твайлайт, чтобы та вернулась в их мир и помогла сотворить музыкальное контр-заклинание, способное помочь им в битве, которая определит дальнейшую судьбу всей школы.
    Доп. информация: В раздаче представлены одноголосые любительские озвучки Трины Дубовицкой и ALEKS KV, за что им всем огромное спасибо. Дополнительные озвучки, а также русские и английские субтитры можно найти в отдельной раздаче, впрочем как и дополнительные материалы.

    Предыдущие и альтернативные раздачи
    Рейтинг:
    Качество: BDRip (Исходник)
    Формат: AVI
    Видео: XviD, 720x400 (16:9), 23.976 fps, ~1932 kbps
    Аудио 1 Rus: AC3 48 kHz, 6 ch, 448 kbps (Трина Дубовицкая)
    Аудио 2 Rus: AC3 48 kHz, 6 ch, 448 kbps (ALEKS KV)

    Скриншоты

    Сравнение скриншотов

    На замену раздаче web-dlrip со статусом "#сомнительно"
    Сравнение кадров - http://screenshotcomparison.com/comparison/101159
    Отличия раздач: исходник, полнота кадра, дебандинг, битрейт, детали, набор озвучек.

    Подробные технические данные

    ОбщееПолное имя : C:\Video\mlp.eg.rainbow.rocks.2014.bdrip.vo.aviФормат : AVIФормат/Информация : Audio Video InterleaveРазмер файла : 1,46 ГбайтПродолжительность : 1 ч. 13 м.Общий поток : 2842 Кбит/секПрограмма кодирования : VirtualDubMod 1.5.10.2 (build 2540/release)Библиотека кодирования : VirtualDubMod build 2540/release
    ВидеоИдентификатор : 0Формат : MPEG-4 VisualПрофиль формата : Advanced Simple@L5Параметр BVOP формата : 1Параметр QPel формата : НетПараметр GMC формата : Без точки переходаПараметр матрицы формата : ВыборочнаяИдентификатор кодека : XVIDИдентификатор кодека/Подсказка : XviDПродолжительность : 1 ч. 13 м.Битрейт : 1932 Кбит/секШирина : 720 пикселейВысота : 400 пикселейСоотношение сторон : 16:9Частота кадров : 23,976 кадра/секЦветовое пространство : YUVСубдискретизация насыщенности : 4:2:0Битовая глубина : 8 битТип развёртки : ПрогрессивнаяМетод сжатия : С потерямиБит/(Пиксели*Кадры) : 0.280Размер потока : 1013 Мбайт (68%)Библиотека кодирования : XviD 64
    Аудио #1Идентификатор : 1Формат : AC-3Формат/Информация : Audio Coding 3Расширение режима : CM (complete main)Параметр Endianness формата : BigИдентификатор кодека : 2000Продолжительность : 1 ч. 13 м.Вид битрейта : ПостоянныйБитрейт : 448 Кбит/секКаналы : 6 каналовРасположение каналов : Front: L C R, Side: L R, LFEЧастота : 48,0 КГцБитовая глубина : 16 битМетод сжатия : С потерямиРазмер потока : 235 Мбайт (16%)Выравнивание : Разделение по промежуткамПродолжительность промежутка : 42 мс. (1,00 видеокадр)Время предзагрузки промежутка : 500 мс.
    Аудио #2Идентификатор : 2Формат : AC-3Формат/Информация : Audio Coding 3Расширение режима : CM (complete main)Параметр Endianness формата : BigИдентификатор кодека : 2000Продолжительность : 1 ч. 13 м.Вид битрейта : ПостоянныйБитрейт : 448 Кбит/секКаналы : 6 каналовРасположение каналов : Front: L C R, Side: L R, LFEЧастота : 48,0 КГцБитовая глубина : 16 битМетод сжатия : С потерямиРазмер потока : 235 Мбайт (16%)Выравнивание : Разделение по промежуткамПродолжительность промежутка : 42 мс. (1,00 видеокадр)Время предзагрузки промежутка : 500 мс.
    Скачать .torrent

    Скачать торрент-файл бесплатно и на максимальной скорости!

    Как скачивать? · Что такое торрент? · Рейтинг и ограничения

    !ВНИМАНИЕ!
    Сайт не распространяет и не хранит электронные версии произведений, а занимается лишь лишь предоставлением доступа к создаваемому пользователями каталогу ссылок на торрент-файлы, которые содержат только списки хеш-сумм, убедительная просьба с жалобами обращаться напрямую к пользователю. Файлы для обмена на трекере предоставлены пользователями сайта, и администрация не несёт ответственности за их содержание. Просьба не заливать файлы, защищенные авторскими правами, а также файлы нелегального содержания!


    _________________
    [Профиль] [ЛС]
    Показать сообщения:    
    Ответить на тему

    Текущее время: Сегодня, в 06:39

    Часовой пояс: GMT + 2



    Вы не можете начинать темы
    Вы не можете отвечать на сообщения
    Вы не можете редактировать свои сообщения
    Вы не можете удалять свои сообщения
    Вы не можете голосовать в опросах
    Вы не можете прикреплять файлы к сообщениям
    Вы не можете скачивать файлы