BitTorrentTracker PerecTracker.org
BitTorrentTracker PerecTracker.org
    
Регистрация  ·  Вход
 
 · 
Забыли пароль?

  • Медведи-соседи / Boonie Bears, to the Rescue! (Динг Лианг / Ding Liang) [2014, мультфильм, комедия, приключения, WEB-DLRip] Dub

    Ответить на тему
     
    Автор Сообщение

    rechyn

    Создавать темы 08-Дек-2015 23:06

           

    [Цитировать]

    Медведи-соседи / Boonie Bears, to the Rescue!-Страна: Китай
    Жанр: мультфильм, комедия, приключения
    Год выпуска: 2014
    Продолжительность: 01:33:15
    Перевод: Профессиональный (полное дублирование)
    Русские субтитры: Нет-Режиссер: Динг Лианг / Ding Liang-Роли озвучивали: Рик Джей Глен (Briar / Ted Marshall Jr. (The Evil Boss) / Ted Marshall Sr. / Arnold / Babu / Vick's Father / TV News Anchor 1 / Bald Thug / Masked Thug 2, озвучка), Шиван Ламсден (Police Dispatch / Masked Thug 3, озвучка), Paul «Maxx» Rinehart (Logger Vick / Tiki / Mr. Lee, озвучка), Тони Томпсон (Maurice / Vick's Mom / Masked Thug 4, озвучка), Джастин Джозеф Вилер (Bramble / Policeman / Skinny Thug / Masked Thug 1 / TV News Anchor 2 / Bystander / Train Conductor, озвучка)-Роли дублировали: Дмитрий Хрусталев, Анатолий Сергеев (Ted Marshall Jr. (The Evil Boss)), Тимур Батрутдинов, Александр Белый, Александр Воронов, Александр Зачиняев, Антон Савенков, Ольга Голованова, Алексей Шадхин, Екатерина Мирошникова, Иван Васильев-Описание: Медведям-соседям и вездесущему дровосеку придется стать нянями очутившегося у них в лесу ребенка. Все бы ничего, если бы эта девочка не была до этого похищена и упущена бандитами, которые жаждут ее вернуть и доставить заказчику - главному злодею. Теперь нашим героям предстоит сразиться с плохими парнями и помочь найти дорогу домой малышке.-Рейтинг:
    -Сборы в России: $198 026
    Мировая премьера: 17 января 2014
    Релиз на DVD: 11 декабря 2014 «CD Land»-Релиз: -Семпл-Качество: WEB-DLRip
    Формат: AVI
    Видео: 656x368 (1.78:1), 24.000 fps, XviD build 65 ~978 kbps avg, 0.17 bit/pixel
    Аудио: 48 kHz, MPEG Layer 3, 2 ch, ~128.00 kbps avg
    Субтитры: Отсутствуют-

    MI

    Format : AVIFormat/Info : Audio Video InterleaveFile size : 745 MiBDuration : 1h 33mnOverall bit rate : 1 116 KbpsWriting application : VirtualDubMod 1.5.10.3 | www.virtualdub-fr.org || (build 2550/release)Writing library : VirtualDubMod build 2550/release
    VideoID : 0Format : MPEG-4 VisualFormat profile : Advanced Simple@L5Format settings, BVOP : 2Format settings, QPel : NoFormat settings, GMC : No warppointsFormat settings, Matrix : CustomCodec ID : XVIDCodec ID/Hint : XviDDuration : 1h 33mnBit rate : 979 KbpsWidth : 656 pixelsHeight : 368 pixelsDisplay aspect ratio : 16:9Frame rate : 24.000 fpsColor space : YUVChroma subsampling : 4:2:0Bit depth : 8 bitsScan type : ProgressiveCompression mode : LossyBits/(Pixel*Frame) : 0.169Stream size : 653 MiB (88%)Writing library : XviD 65
    AudioID : 1Format : MPEG AudioFormat version : Version 1Format profile : Layer 3Codec ID : 55Codec ID/Hint : MP3Duration : 1h 33mnBit rate mode : ConstantBit rate : 128 KbpsChannel(s) : 2 channelsSampling rate : 48.0 KHzCompression mode : LossyStream size : 85.4 MiB (11%)Alignment : Aligned on interleavesInterleave, duration : 42 ms (1.00 video frame)Interleave, preload duration : 504 msWriting library : LAME3.99rEncoding settings : -m s -V 4 -q 2 -lowpass 17 -b 128
    Все раздачи мультфильма!
    Скачать .torrent

    Скачать торрент-файл бесплатно и на максимальной скорости!

    Как скачивать? · Что такое торрент? · Рейтинг и ограничения

    !ВНИМАНИЕ!
    Сайт не распространяет и не хранит электронные версии произведений, а занимается лишь лишь предоставлением доступа к создаваемому пользователями каталогу ссылок на торрент-файлы, которые содержат только списки хеш-сумм, убедительная просьба с жалобами обращаться напрямую к пользователю. Файлы для обмена на трекере предоставлены пользователями сайта, и администрация не несёт ответственности за их содержание. Просьба не заливать файлы, защищенные авторскими правами, а также файлы нелегального содержания!


    _________________
    [Профиль] [ЛС]
    Показать сообщения:    
    Ответить на тему

    Текущее время: Сегодня, в 18:57

    Часовой пояс: GMT + 2



    Вы не можете начинать темы
    Вы не можете отвечать на сообщения
    Вы не можете редактировать свои сообщения
    Вы не можете удалять свои сообщения
    Вы не можете голосовать в опросах
    Вы не можете прикреплять файлы к сообщениям
    Вы не можете скачивать файлы