BitTorrentTracker PerecTracker.org
BitTorrentTracker PerecTracker.org
    
Регистрация  ·  Вход
 
 · 
Забыли пароль?

  • Брэндан и секрет Келлов / Тайна аббатства Келлс / Тайна Келлс / The Secret Of Kells (Томм Мур / Tomm Moore, Нора Твоми / Nora Twomey) [2009, приключенческая сказка, HDRip] MVO + Eng + Sub Rus + Sub Eng

    Ответить на тему
     
    Автор Сообщение

    rechyn

    Создавать темы 08-Дек-2015 23:06

           

    [Цитировать]

    Брэндан и секрет Келлов / Тайна аббатства Келлс / Тайна Келлс / The Secret Of Kells
    Страна: Франция, Ирландия, Бельгия
    Жанр: приключенческая сказка
    Продолжительность: 01:18:38
    Год выпуска: 2009
    Перевод: Профессиональный (многоголосый закадровый)
    Русские субтитры: есть
    Режиссёр: Томм Мур / Tomm Moore, Нора Твоми / Nora Twomey
    Описание: На дворе 9 век. В ирландской глубинке спряталось старинное аббатство Келлз, руководит им авторитарный Настоятель. Воспитанный им племянник-сирота по имени Брендан — мальчик славный и способный. Ему 12 лет, и он вместе с другими монахами старательно трудится над укреплением стен аббатства для защиты от набегов викингов.
    Новая полная приключений жизнь ждет Брендана с прибытием Брата Эйдана, знаменитого мастера-иллюстратора и хранителя необычной незаконченной книги с иллюстрациями. Брат Эйдан принимает мальчика под свое крыло и посвящает его в искусство иллюстрации, пробуждая невероятный интерес и удивительный талант.
    Доп. информация: Русская дорожка с канала Кинолюкс. Озвучка та же, что есть на трекере.
    Сэмпл: http://multi-up.com/1018257
    Качество: HDRip
    Формат: AVI
    Видео: MPEG4, XviD, 720x400 (16/9), 23.976 fps, 1 722 Kbps (0.249 bit/pixel)
    Аудио 1: AC-3, 48.0 KHz, 6 ch, 384 Kbps, CBR - русский
    Аудио 2: AC-3, 48.0 KHz, 6 ch, 448 Kbps, CBR - английский
    Субтитры: русские, английские

    Подробные технические данные

    ОбщееПолное имя : K:\Тайна аббатства Келлс\Тайна аббатства Келлс.aviФормат : AVIФормат/Информация : Audio Video InterleaveРазмер файла : 1,42 ГбайтПродолжительность : 1 ч. 19 м.Общий поток : 2567 Кбит/секНазвание фильма : Брэндан и секрет Келлов / Тайна аббатства Келлс / Тайна Келлс / The Secret Of Kells (2009)Программа кодирования : VirtualDubMod 1.5.10.2 (build 2540/release)Библиотека кодирования : VirtualDubMod build 2540/releaseПравообладатель : miha2154
    ВидеоИдентификатор : 0Формат : MPEG-4 VisualПрофиль формата : Advanced Simple@L5Параметр BVOP формата : 1Параметр QPel формата : НетПараметр GMC формата : Без точки переходаПараметр матрицы формата : ВыборочнаяИдентификатор кодека : XVIDИдентификатор кодека/Подсказка : XviDПродолжительность : 1 ч. 19 м.Битрейт : 1722 Кбит/секШирина : 720 пикселейВысота : 400 пикселейСоотношение сторон : 16:9Частота кадров : 23,976 кадра/секЦветовое пространство : YUVСубдискретизация насыщенности : 4:2:0Битовая глубина : 8 битТип развёртки : ПрогрессивнаяМетод сжатия : С потерямиБит/(Пиксели*Кадры) : 0.249Размер потока : 973 Мбайт (67%)Библиотека кодирования : XviD 65
    Аудио #1Идентификатор : 1Формат : AC-3Формат/Информация : Audio Coding 3Расширение режима : CM (complete main)Параметр Endianness формата : BigИдентификатор кодека : 2000Продолжительность : 1 ч. 18 м.Вид битрейта : ПостоянныйБитрейт : 384 Кбит/секКаналы : 6 каналовРасположение каналов : Front: L C R, Side: L R, LFEЧастота : 48,0 КГцБитовая глубина : 16 битМетод сжатия : С потерямиЗадержка видео : 1 с. 220 мс.Размер потока : 216 Мбайт (15%)Выравнивание : Разделение по промежуткамПродолжительность промежутка : 42 мс. (1,00 видеокадр)Время предзагрузки промежутка : 500 мс.Заголовок : Профессиональный (многоголосый закадровый) Кинолюкс
    Аудио #2Идентификатор : 2Формат : AC-3Формат/Информация : Audio Coding 3Расширение режима : CM (complete main)Параметр Endianness формата : BigИдентификатор кодека : 2000Продолжительность : 1 ч. 19 м.Вид битрейта : ПостоянныйБитрейт : 448 Кбит/секКаналы : 6 каналовРасположение каналов : Front: L C R, Side: L R, LFEЧастота : 48,0 КГцБитовая глубина : 16 битМетод сжатия : С потерямиРазмер потока : 253 Мбайт (17%)Выравнивание : Разделение по промежуткамПродолжительность промежутка : 42 мс. (1,00 видеокадр)Время предзагрузки промежутка : 500 мс.Заголовок : Английский

    Скриншоты

    Торрент перезалит 8.12.14 - по требованию модератора русская дорожка пережата с меньшим битрейтом, добавлены субтитры
    Скачать .torrent

    Скачать торрент-файл бесплатно и на максимальной скорости!

    Как скачивать? · Что такое торрент? · Рейтинг и ограничения

    !ВНИМАНИЕ!
    Сайт не распространяет и не хранит электронные версии произведений, а занимается лишь лишь предоставлением доступа к создаваемому пользователями каталогу ссылок на торрент-файлы, которые содержат только списки хеш-сумм, убедительная просьба с жалобами обращаться напрямую к пользователю. Файлы для обмена на трекере предоставлены пользователями сайта, и администрация не несёт ответственности за их содержание. Просьба не заливать файлы, защищенные авторскими правами, а также файлы нелегального содержания!


    _________________
    [Профиль] [ЛС]
    Показать сообщения:    
    Ответить на тему

    Текущее время: Сегодня, в 14:29

    Часовой пояс: GMT + 2



    Вы не можете начинать темы
    Вы не можете отвечать на сообщения
    Вы не можете редактировать свои сообщения
    Вы не можете удалять свои сообщения
    Вы не можете голосовать в опросах
    Вы не можете прикреплять файлы к сообщениям
    Вы не можете скачивать файлы