Register  ·  Log in
Forgot password?

  • Тинтин: Храм Солнца / Tintin et le temple du soleil / Seven Crystal Balls and the Prisoners of the Sun (Эдди Латесте / Eddie Lateste) [1969, мультфильм, детектив, приключения, семейный, DVB] DUB

    Reply to topic
    Author Message


    Post 09-Dec-2015 00:06



    Тинтин: Храм Солнца / Tintin et le temple du soleil / Seven Crystal Balls and the Prisoners of the Sun-Страна: Бельгия, Франция, Швейцария
    Жанр: мультфильм, детектив, приключения, семейный
    Продолжительность: 01:17:38
    Год выпуска: 1969
    Перевод: Профессиональный (дублированный)
    Русские субтитры: нет-Режиссёр: Эдди Латесте / Eddie Lateste- | Релиз: -Описание: Профессор Турнесоль надел браслет с руки мумии и был похищен потомками инков, которые увезли его в Перу. Тинтин и его друзья отправляются на поиски профессора в приключения, которые приведут их к сердцу Перу - в Храм Солнца...-Семпл:Качество: DVB (Канал "Gulli")
    Формат: MPG
    Видео: 720x576 (4:3) @ 768x576, 25.000 fps, MPEG-2 Video, ~2622 Kbps, 0.253 bits/pixel
    Аудио: 48.0 KHz, MPEG-1 Audio layer 2, 2 ch, 192 Kbps
    Субтитры: отсутствуют


    GeneralComplete name : Les Aventures de Tintin - Le Temple du Soleil 1969 DUB Gulli.mpgFormat : MPEG-PSFile size : 1.56 GiBDuration : 1h 17mnOverall bit rate mode : VariableOverall bit rate : 2 871 Kbps
    VideoID : 224 (0xE0)Format : MPEG VideoFormat version : Version 2Format profile : Main@MainFormat settings, BVOP : YesFormat settings, Matrix : CustomFormat settings, GOP : VariableFormat settings, picture structure : FrameDuration : 1h 17mnBit rate mode : VariableBit rate : 2 622 KbpsMaximum bit rate : 15.0 MbpsWidth : 720 pixelsHeight : 576 pixelsDisplay aspect ratio : 4:3Frame rate : 25.000 fpsStandard : PALColor space : YUVChroma subsampling : 4:2:0Bit depth : 8 bitsScan type : InterlacedScan order : Top Field FirstCompression mode : LossyBits/(Pixel*Frame) : 0.253Time code of first frame : 00:00:00:00Time code source : Group of pictures headerGOP, Open/Closed : OpenStream size : 1.42 GiB (91%)GOP, Open/Closed of first frame : Closed
    AudioID : 192 (0xC0)Format : MPEG AudioFormat version : Version 1Format profile : Layer 2Duration : 1h 17mnBit rate mode : ConstantBit rate : 192 KbpsChannel(s) : 2 channelsSampling rate : 48.0 KHzCompression mode : LossyStream size : 107 MiB (7%)


    Коллекция мультфильмов о Тинтине:-1964 - Дело Турнесоля / L'Affaire Tournesol
    1969 - Храм Солнца / Tintin et le temple du soleil
    1972 - Тинтин и акулье озеро / Tintin et le Lac aux Requins
    1991-1992 - Приключения Тинтина / Les Aventures de Tintin
    2011 - Приключения Тинтина: Тайна Единорога / The Adventures of Tintin-Художественные фильмы о Тинтине:-1961 - Тинтин и загадка Золотого Руна / Tintin et le mystère de la toison d'or
    1964 - Тинтин и голубые апельсины / Tintin et les oranges bleues
    Download .torrent

    Download free and at maximum speed!

    How to Download? · What is a torrent? · Ratings and Limitations

    The site does not extend and does not store electronic(digital) versions of products, and only gives access to a reference catalogue created by users on torrent-files which contain only lists of the hash-sums, the earnest entreaty, with complaints(abuse) to access directly to the user. Files for an exchange on tracker are given by users of a site, and the administration does not bear the responsibility for their maintenance. The request to not fill in the files protected by copyrights, and also files of the illegal maintenance!

    [Profile] [PM]
    Display posts from previous:    
    Reply to topic

    The time now is: Today 02:49

    All times are GMT + 3 Hours

    You cannot post new topics in this forum
    You cannot reply to topics in this forum
    You cannot edit your posts in this forum
    You cannot delete your posts in this forum
    You cannot vote in polls in this forum
    You cannot attach files in this forum
    You cannot download files in this forum