BitTorrentTracker PerecTracker.org
BitTorrentTracker PerecTracker.org
    
Регистрация  ·  Вход
 
 · 
Забыли пароль?

  • Белый клык / White Fang (Майкл Спорн / Michael Sporn) [1997, Семейный, мультфильм, приключения, DVDRip] MVO

    Ответить на тему
     
    Автор Сообщение

    rechyn

    Создавать темы 08-Дек-2015 23:06

           

    [Цитировать]

    Белый клык / White Fang
    Страна: США
    Жанр: Семейный, мультфильм, приключения
    Продолжительность: 00:44:36
    Год выпуска: 1997
    Перевод: Профессиональный (многоголосый закадровый)
    Русские субтитры: нет
    Режиссёр: Майкл Спорн / Michael Sporn-Описание: Рожденный на величественных, повергающих в трепет, просторах Юкона, маленький Белый Клык больше всего мечтает о том, чтобы последовать по следам своего величавого и гордого отца и стать самым великим охотником. Огромный глубокий лес встречает его вместе с новыми друзьями и это настоящая школа жизни для храброго и дружелюбного волчонка. Но вдруг случается несчастье. Внезапно осиротевший, когда его отца убивают, а мать продают, Белый Клык узнает, что мир людей гораздо более жесток, чем его привычное лесное окружение. Несмотря на тяжелые испытания и проверку характера, полуволк — полусобака никогда не теряет веру и мудрость, которую он получил от природы.-Качество: DVDRip
    Формат: AVI
    Видео: XviD, 640x480 (4:3), 25 fps, ~2000 kbps
    Аудио: AC3, 48 kHz, 2 ch, 192 kbps (Rus)
    Субтитры: отсутствуют
    Релиз:

    Подробные технические данные

    ОбщееПолное имя : E:\MULTFILMS\White_Fang_1997_DVDRip.aviФормат : AVIФормат/Информация : Audio Video InterleaveРазмер файла : 701 МбайтПродолжительность : 44 м.Общий поток : 2196 Кбит/секПрограмма кодирования : VirtualDubMod 1.5.10.2 (build 2542/release)Библиотека кодирования : VirtualDub build 28346/release
    ВидеоИдентификатор : 0Формат : MPEG-4 VisualПрофиль формата : Advanced Simple@L5Параметр BVOP формата : 2Параметр QPel формата : НетПараметр GMC формата : Без точки переходаПараметр матрицы формата : ВыборочнаяИдентификатор кодека : XVIDИдентификатор кодека/Подсказка : XviDПродолжительность : 44 м.Битрейт : 1994 Кбит/секШирина : 640 пикселейВысота : 480 пикселейСоотношение сторон : 4:3Частота кадров : 25,000 кадров/секЦветовое пространство : YUVСубдискретизация насыщенности : 4:2:0Битовая глубина : 8 битТип развёртки : ПрогрессивнаяМетод сжатия : С потерямиБит/(Пиксели*Кадры) : 0.260Размер потока : 636 Мбайт (91%)Библиотека кодирования : XviD 65
    АудиоИдентификатор : 1Формат : AC-3Формат/Информация : Audio Coding 3Расширение режима : CM (complete main)Параметр Endianness формата : BigИдентификатор кодека : 2000Продолжительность : 44 м.Вид битрейта : ПостоянныйБитрейт : 192 Кбит/секКаналы : 2 каналаРасположение каналов : Front: L RЧастота : 48,0 КГцБитовая глубина : 16 битМетод сжатия : С потерямиЗадержка видео : 24 мс.Размер потока : 61,3 Мбайт (9%)Выравнивание : Разделение по промежуткамПродолжительность промежутка : 40 мс. (1,00 видеокадр)Время предзагрузки промежутка : 500 мс.

    Скриншоты


    Скачать .torrent

    Скачать торрент-файл бесплатно и на максимальной скорости!

    Как скачивать? · Что такое торрент? · Рейтинг и ограничения

    !ВНИМАНИЕ!
    Сайт не распространяет и не хранит электронные версии произведений, а занимается лишь лишь предоставлением доступа к создаваемому пользователями каталогу ссылок на торрент-файлы, которые содержат только списки хеш-сумм, убедительная просьба с жалобами обращаться напрямую к пользователю. Файлы для обмена на трекере предоставлены пользователями сайта, и администрация не несёт ответственности за их содержание. Просьба не заливать файлы, защищенные авторскими правами, а также файлы нелегального содержания!


    _________________
    [Профиль] [ЛС]
    Показать сообщения:    
    Ответить на тему

    Текущее время: Сегодня, в 16:40

    Часовой пояс: GMT + 2



    Вы не можете начинать темы
    Вы не можете отвечать на сообщения
    Вы не можете редактировать свои сообщения
    Вы не можете удалять свои сообщения
    Вы не можете голосовать в опросах
    Вы не можете прикреплять файлы к сообщениям
    Вы не можете скачивать файлы