BitTorrentTracker PerecTracker.org
BitTorrentTracker PerecTracker.org
    
Регистрация  ·  Вход
 
 · 
Забыли пароль?

  • Рождественская песня / A Christmas Carol (Тошиюки Хирума / Toshiyuki Hiruma) [1994, Семейный, фэнтези, сказка, DVDRip] Mvo

    Ответить на тему
     
    Автор Сообщение

    rechyn

    Создавать темы 08-Дек-2015 23:06

           

    [Цитировать]

    Рождественская песня / A Christmas Carol
    Страна: США, Япония
    Жанр: Семейный, фэнтези, мультфильм
    Продолжительность: 00:48:35
    Год выпуска: 1994
    Перевод: Профессиональный (многоголосый закадровый)
    Русские субтитры: нет-Режиссёр: Тошиюки Хирума / Toshiyuki Hiruma-Описание: Похоронив своего давнего друга и партнера по бизнесу, Эбенезер Скрудж, и так не отличавшийся особой душевной добротой, впал в уныние и возненавидел весь окружающий мир. Особенно достается его верному и безответному помощнику Бобу Крэтчиту. Но когда в Рождественскую ночь Скруджу являются Духи Рождества, они открывают ему глаза на его прошлое, настоящее и будущее. Скрудж понимает, что в погоне за богатством лишился самого главного: счастья любить и быть любимым. Умоляя Духов дать ему второй шанс, Скрудж обещает изменить образ жизни и навсегда «впустить Рождество к себе в сердце»…-Релиз: -Качество: DVDRip
    Формат: AVI
    Видео: 640x480 (1.33:1), 25 fps, XviD build 65 ~1935 kbps avg, 0.25 bit/pixel
    Аудио: 48 kHz, AC3 Dolby Digital, 2/0 (L,R) ch, ~192 kbps
    Субтитры: отсутствуют-

    MI

    Format : AVIFormat/Info : Audio Video InterleaveFile size : 743 MiBDuration : 48mn 35sOverall bit rate : 2 137 KbpsWriting application : VirtualDubMod 1.5.10.3 | www.virtualdub-fr.org || (build 2550/release)Writing library : VirtualDubMod build 2550/release
    VideoID : 0Format : MPEG-4 VisualFormat profile : Advanced Simple@L5Format settings, BVOP : 2Format settings, QPel : NoFormat settings, GMC : No warppointsFormat settings, Matrix : CustomCodec ID : XVIDCodec ID/Hint : XviDDuration : 48mn 35sBit rate : 1 936 KbpsWidth : 640 pixelsHeight : 480 pixelsDisplay aspect ratio : 4:3Frame rate : 25.000 fpsColor space : YUVChroma subsampling : 4:2:0Bit depth : 8 bitsScan type : ProgressiveCompression mode : LossyBits/(Pixel*Frame) : 0.252Stream size : 673 MiB (91%)Writing library : XviD 65
    AudioID : 1Format : AC-3Format/Info : Audio Coding 3Mode extension : CM (complete main)Format settings, Endianness : BigCodec ID : 2000Duration : 48mn 34sBit rate mode : ConstantBit rate : 192 KbpsChannel(s) : 2 channelsChannel positions : Front: L RSampling rate : 48.0 KHzBit depth : 16 bitsCompression mode : LossyStream size : 66.7 MiB (9%)Alignment : Split accross interleavesInterleave, duration : 40 ms (1.00 video frame)Interleave, preload duration : 500 ms
    Все раздачи мультфильма!
    Скачать .torrent

    Скачать торрент-файл бесплатно и на максимальной скорости!

    Как скачивать? · Что такое торрент? · Рейтинг и ограничения

    !ВНИМАНИЕ!
    Сайт не распространяет и не хранит электронные версии произведений, а занимается лишь лишь предоставлением доступа к создаваемому пользователями каталогу ссылок на торрент-файлы, которые содержат только списки хеш-сумм, убедительная просьба с жалобами обращаться напрямую к пользователю. Файлы для обмена на трекере предоставлены пользователями сайта, и администрация не несёт ответственности за их содержание. Просьба не заливать файлы, защищенные авторскими правами, а также файлы нелегального содержания!


    _________________
    [Профиль] [ЛС]
    Показать сообщения:    
    Ответить на тему

    Текущее время: Сегодня, в 10:41

    Часовой пояс: GMT + 2



    Вы не можете начинать темы
    Вы не можете отвечать на сообщения
    Вы не можете редактировать свои сообщения
    Вы не можете удалять свои сообщения
    Вы не можете голосовать в опросах
    Вы не можете прикреплять файлы к сообщениям
    Вы не можете скачивать файлы