BitTorrentTracker PerecTracker.org
BitTorrentTracker PerecTracker.org
    
Регистрация  ·  Вход
 
 · 
Забыли пароль?

  • Полярный экспресс / The Polar Express (Роберт Земекис / Robert Zemeckis) [2004, фэнтези, приключения, семейный, BDRip-AVC] Dub + DVO + VO + DVO (Ukr) + Rus, Ukr, Eng Sub + Original (Eng)

    Ответить на тему
     
    Автор Сообщение

    rechyn

    Создавать темы 08-Дек-2015 23:06

           

    [Цитировать]

    Полярный экспресс / The Polar Express«В эти новогодние праздники... просто поверь!»-Страна: США
    Жанр: фэнтези, приключения, семейный
    Продолжительность: 01:39:57
    Год выпуска: 2004
    Перевод: Профессиональный (дублированный) "Мосфильм-Мастер"
    Перевод 2: Профессиональный (двухголосый закадровый) "Tycoon"
    Перевод 3: Авторский (одноголосый закадровый) Владимир Королёв
    Перевод 4: Українська Профессиональный (двухголосый закадровый) "Так треба продакшн"
    Русские субтитры: есть
    Режиссёр: Роберт Земекис / Robert Zemeckis
    Роли озвучивали: Том Хэнкс, Майкл Джитер, Нона Гэй, Питер Сколари, Эдди Дизен, Лесли Хартер Земекис, Чарльз Флайшер, Джош Эли, Марк Мендонка, Роландас Хендрикс, Марк Гудман, Джон Скотт, Грегори Гаст, Шон Скотт, Гордон Харт, Брендан Кинг, Крис Коппола, Джулин Рени...
    Роли дублировали: Александр Филиппенко, Дмитрий Мартынов и др.-ОписаниеНеобыкновенная история о маленьком мальчике, который верит в Санта Клауса, несмотря на то, что все друзья и вся семья в один голос утверждают, что это всего лишь сказка. И однажды искренняя вера мальчика вознаграждается. В канун Рождества у его дома останавливается волшебный поезд "Полярный экспресс" и уносит мальчика в чудесное незабываемое путешествие в гости к Санта Клаусу. И пока Рождественская ночь опускается на спящий мир, пассажиры "Полярного экспресса" мчатся на Северный Полюс, встречая на своем пути приключения и опасности, подстерегающие их в темных лесах, зловещих горах и ледяной тундре...-
    The Polar Express выпущен Castle Rock Entertainment в ассоциации с Shangri-La Entertainment, ImageMovers, Playtone и Golden Mean, для Warner Bros. Pictures по технологии Motion capture
    Семпл

    IMDb: 6.60 (99 505)
    Качество: BDRip-AVC BDRemux 1080p xfiles
    Формат: MKV
    Видео: AVC 2608 Kbps 1152 x 478 (2.410) 23.976 fps
    Аудио: AC-3 384 Kbps 6 channels, 48.0 KHz DUB "Мосфильм-Мастер"
    Аудио 2: AC-3 384 Kbps 6 channels, 48.0 KHz DVO "Tycoon"
    Аудио 3: AC-3 384 Kbps 6 channels, 48.0 KHz VO Владимир Королёв
    Аудио 4: AC-3 192 Kbps 2 channels, 48.0 KHz DVO "Так треба продакшн" Ukr
    Аудио 5: AC-3 384 Kbps 6 channels, 48.0 KHz Eng
    Субтитры: Rus, Ukr, English (Full, SDH)

    FAQ по просмотру MKV/h.264 | Хеш файла [info_hash]

    FAQ по просмотру MKV/h.264/AAC
    Хеш файла [info_hash] (Хеш-сумма)
    Или, проще говоря, хеш файла является уникальным идентификатором файла (раздачи)
    MI | Log

    Log

    x264 [info]: frame I:852 Avg QP:14.16 size: 69044
    x264 [info]: frame P:38431 Avg QP:16.22 size: 25762
    x264 [info]: frame B:104489 Avg QP:19.22 size: 9277
    x264 [info]: consecutive B-frames: 4.2% 5.9% 12.8% 30.2% 20.5% 23.2% 1.2% 0.6% 0.3% 0.3% 0.2% 0.1% 0.0% 0.2% 0.3%
    x264 [info]: mb I I16..4: 8.1% 71.4% 20.5%
    x264 [info]: mb P I16..4: 1.6% 17.6% 2.4% P16..4: 24.8% 30.0% 12.2% 2.4% 0.3% skip: 8.6%
    x264 [info]: mb B I16..4: 0.4% 2.9% 0.3% B16..8: 30.3% 22.5% 4.2% direct: 5.5% skip:34.0% L0:40.5% L1:43.7% BI:15.8%
    x264 [info]: 8x8 transform intra:80.3% inter:55.7%
    x264 [info]: coded y,uvDC,uvAC intra: 80.9% 74.2% 55.7% inter: 22.7% 18.4% 6.2%
    x264 [info]: i16 v,h,dc,p: 24% 19% 4% 54%
    x264 [info]: i8 v,h,dc,ddl,ddr,vr,hd,vl,hu: 9% 11% 9% 8% 12% 11% 13% 11% 16%
    x264 [info]: i4 v,h,dc,ddl,ddr,vr,hd,vl,hu: 11% 11% 11% 7% 13% 11% 13% 9% 12%
    x264 [info]: i8c dc,h,v,p: 33% 35% 18% 13%
    x264 [info]: Weighted P-Frames: Y:4.2% UV:3.2%
    x264 [info]: ref P L0: 51.9% 9.6% 14.6% 5.6% 4.5% 3.5% 2.8% 1.7% 1.5% 1.4% 1.3% 1.3% 0.3% 0.0%
    x264 [info]: ref B L0: 77.1% 9.0% 4.1% 2.2% 2.1% 1.7% 1.3% 0.8% 0.8% 0.6% 0.3%
    x264 [info]: ref B L1: 94.1% 5.9%
    x264 [info]: kb/s:2692.48
    x264 [total]: encoded 143772 frames, 8.51 fps, 2692.48 kb/s, duration 4:41:27.79
    Format                                   : MatroskaFormat version                           : Version 4 / Version 2File size                                : 3.09 GiBDuration                                 : 1h 39mnOverall bit rate                         : 4 424 KbpsEncoded date                             : UTC 2015-01-02 01:29:52Writing application                      : mkvmerge v6.7.0 ('Back to the Ground') 32bit built on Jan  8 2014 15:03:17Writing library                          : libebml v1.3.0 + libmatroska v1.4.1
    VideoID : 1Format : AVCFormat/Info : Advanced Video CodecFormat profile : High@L4.1Format settings, CABAC : YesFormat settings, ReFrames : 12 framesCodec ID : V_MPEG4/ISO/AVCDuration : 1h 39mnBit rate : 2 608 KbpsWidth : 1 152 pixelsHeight : 478 pixelsDisplay aspect ratio : 2.40:1Frame rate mode : ConstantFrame rate : 23.976 fpsColor space : YUVChroma subsampling : 4:2:0Bit depth : 8 bitsScan type : ProgressiveBits/(Pixel*Frame) : 0.198Stream size : 1.82 GiB (59%)Title : The Polar Express [perectracker.org]Writing library : x264 core 144 r2525kMod 40bb568Encoding settings : cabac=1 / ref=12 / deblock=1:-2:-1 / analyse=0x3:0x133 / me=umh / subme=11 / psy=1 / fade_compensate=0.00 / psy_rd=1.00:0.05 / mixed_ref=1 / me_range=48 / chroma_me=1 / trellis=2 / 8x8dct=1 / cqm=0 / deadzone=21,11 / fast_pskip=0 / chroma_qp_offset=-3 / threads=12 / lookahead_threads=3 / sliced_threads=0 / nr=0 / decimate=1 / interlaced=0 / bluray_compat=0 / constrained_intra=0 / fgo=0 / bframes=14 / b_pyramid=2 / b_adapt=2 / b_bias=0 / direct=1 / weightb=1 / open_gop=0 / weightp=2 / keyint=250 / keyint_min=23 / scenecut=40 / intra_refresh=0 / rc_lookahead=70 / rc=crf / mbtree=0 / crf=17.6000 / qcomp=0.60 / qpmin=0 / qpmax=69 / qpstep=4 / vbv_maxrate=50000 / vbv_bufsize=62500 / crf_max=0.0 / nal_hrd=none / filler=0 / ip_ratio=1.40 / pb_ratio=1.30 / aq=3:0.90Language : EnglishDefault : YesForced : No
    Audio #1ID : 2Format : AC-3Format/Info : Audio Coding 3Mode extension : CM (complete main)Format settings, Endianness : BigCodec ID : A_AC3Duration : 1h 39mnBit rate mode : ConstantBit rate : 384 KbpsChannel(s) : 6 channelsChannel positions : Front: L C R, Side: L R, LFESampling rate : 48.0 KHzBit depth : 16 bitsCompression mode : LossyStream size : 275 MiB (9%)Title : DubLanguage : RussianDefault : YesForced : No
    Audio #2ID : 3Format : AC-3Format/Info : Audio Coding 3Mode extension : CM (complete main)Format settings, Endianness : BigCodec ID : A_AC3Duration : 1h 39mnBit rate mode : ConstantBit rate : 384 KbpsChannel(s) : 6 channelsChannel positions : Front: L C R, Side: L R, LFESampling rate : 48.0 KHzBit depth : 16 bitsCompression mode : LossyStream size : 275 MiB (9%)Title : DVO [Tycoon]Language : RussianDefault : NoForced : No
    Audio #3ID : 4Format : AC-3Format/Info : Audio Coding 3Mode extension : CM (complete main)Format settings, Endianness : BigCodec ID : A_AC3Duration : 1h 39mnBit rate mode : ConstantBit rate : 384 KbpsChannel(s) : 6 channelsChannel positions : Front: L C R, Side: L R, LFESampling rate : 48.0 KHzBit depth : 16 bitsCompression mode : LossyStream size : 275 MiB (9%)Title : VO [V. Korolev]Language : RussianDefault : NoForced : No
    Audio #4ID : 5Format : AC-3Format/Info : Audio Coding 3Mode extension : CM (complete main)Format settings, Endianness : BigCodec ID : A_AC3Duration : 1h 39mnBit rate mode : ConstantBit rate : 192 KbpsChannel(s) : 2 channelsChannel positions : Front: L RSampling rate : 48.0 KHzBit depth : 16 bitsCompression mode : LossyStream size : 137 MiB (4%)Title : DVOLanguage : UkrainianDefault : NoForced : No
    Audio #5ID : 6Format : AC-3Format/Info : Audio Coding 3Mode extension : CM (complete main)Format settings, Endianness : BigCodec ID : A_AC3Duration : 1h 39mnBit rate mode : ConstantBit rate : 384 KbpsChannel(s) : 6 channelsChannel positions : Front: L C R, Side: L R, LFESampling rate : 48.0 KHzBit depth : 16 bitsCompression mode : LossyStream size : 275 MiB (9%)Title : OriginalLanguage : EnglishDefault : NoForced : No
    Text #1ID : 7Format : UTF-8Codec ID : S_TEXT/UTF8Codec ID/Info : UTF-8 Plain TextLanguage : RussianDefault : NoForced : No
    Text #2ID : 8Format : UTF-8Codec ID : S_TEXT/UTF8Codec ID/Info : UTF-8 Plain TextLanguage : UkrainianDefault : NoForced : No
    Text #3ID : 9Format : UTF-8Codec ID : S_TEXT/UTF8Codec ID/Info : UTF-8 Plain TextLanguage : EnglishDefault : NoForced : No
    Text #4ID : 10Format : UTF-8Codec ID : S_TEXT/UTF8Codec ID/Info : UTF-8 Plain TextTitle : SDHLanguage : EnglishDefault : NoForced : No
    Menu00:00:00.000 : en:01. Christmas Eve00:05:07.474 : en:02. All Aboard00:09:46.920 : en:03. Another Passenger00:15:16.415 : en:04. Hot Chocolate00:18:19.765 : en:05. Ticket on the Loose00:23:08.220 : en:06. Hobo on the Roof00:28:07.519 : en:07. Look Who's Driving00:33:43.688 : en:08. Caribou Conversation00:35:25.290 : en:09. Hitting the Ice00:41:37.328 : en:10. Foresaken Toys00:44:45.016 : en:11. When Christmas Comes to Town00:47:06.157 : en:12. The Polar Express00:49:18.622 : en:13. Where's the Brake?00:53:25.869 : en:14. Steven gets a break00:57:18.435 : en:15. Billy's Present01:01:08.999 : en:16. Elf Action01:05:55.785 : en:17. Readying for Santa01:09:55.191 : en:18. I Believe01:12:56.205 : en:19. First Gift of Christmas01:16:28.250 : en:20. Dash Away All!01:19:37.940 : en:21. Tickets Fully Punched01:21:51.406 : en:22. What Matters01:27:10.058 : en:23. For Whom the Bell Rings01:31:21.142 : en:24. End Credits

    Скриншоты




    Скачать .torrent

    Скачать торрент-файл бесплатно и на максимальной скорости!

    Как скачивать? · Что такое торрент? · Рейтинг и ограничения

    !ВНИМАНИЕ!
    Сайт не распространяет и не хранит электронные версии произведений, а занимается лишь лишь предоставлением доступа к создаваемому пользователями каталогу ссылок на торрент-файлы, которые содержат только списки хеш-сумм, убедительная просьба с жалобами обращаться напрямую к пользователю. Файлы для обмена на трекере предоставлены пользователями сайта, и администрация не несёт ответственности за их содержание. Просьба не заливать файлы, защищенные авторскими правами, а также файлы нелегального содержания!


    _________________
    [Профиль] [ЛС]
    Показать сообщения:    
    Ответить на тему

    Текущее время: Сегодня, в 11:32

    Часовой пояс: GMT + 2



    Вы не можете начинать темы
    Вы не можете отвечать на сообщения
    Вы не можете редактировать свои сообщения
    Вы не можете удалять свои сообщения
    Вы не можете голосовать в опросах
    Вы не можете прикреплять файлы к сообщениям
    Вы не можете скачивать файлы