BitTorrentTracker PerecTracker.org
BitTorrentTracker PerecTracker.org
    
Регистрация  ·  Вход
 
 · 
Забыли пароль?

  • Принцесса и лягушка / The Princess and the Frog (Рон Клементс, Джон Маскер / Ron Clements, John Musker) [2009 г., мультфильм, мюзикл, фэнтези, мелодрама, семейный, HDRip] AVO (Гаврилов)

    Ответить на тему
     
    Автор Сообщение

    rechyn

    Создавать темы 08-Дек-2015 23:06

           

    [Цитировать]

    Принцесса и лягушка / The Princess and the Frog
    Страна: США
    Жанр: мультфильм, мюзикл, фэнтези, мелодрама, семейный
    Продолжительность: 01:37:27
    Год выпуска: 2009
    Перевод: Авторский (одноголосый закадровый) Андрей Гаврилов спасибо budulai-8
    Русские субтитры: нет
    Режиссёр: Рон Клементс, Джон Маскер / Ron Clements, John Musker
    Роли озвучивали: Аника Нони Роуз, Бруно Кампос, Кит Дэвид, Дженнифер Коуди, Джим Каммингс, Питер Бартлетт, Дженифер Льюис, Опра Уинфри, Терренс Ховард
    Описание: Все мы знаем, что бывает, когда принц целует заколдованную в лягушку принцессу. Но что случится, если переодетая в принцессу официантка поцелует лягушку-принца?
    Команда мультипликаторов под руководством Рона Клементса и Джона Маскера, создателей «Русалочки» и «Аладдина», а также обладатель премии «Оскар» композитор Рэнди Ньюман поведают самую прекрасную историю любви на свете… с участием лягушек, магии Вуду и поющего аллигатора.

    Качество: HDRip спасибо Serval
    Формат: AVI
    Видео: XviD, 720x400 (1.80:1), 23.976 fps, XviD build 50 ~1676 kbps avg, 0.24 bit/pixel
    Аудио: AC3, 48 kHz, AC3 Dolby Digital, 3/2 (L,C,R,l,r) + LFE ch, ~448 kbps
    Субтитры: отсутствуют

    Подробные технические данные

    Полное имя : Принцесса и лягушка.aviФормат : AVIФормат/Информация : Audio Video InterleaveРазмер файла : 1,45 ГбайтПродолжительность : 1 ч. 37 м.Общий поток : 2134 Кбит/секПрограмма кодирования : VirtualDubMod 1.5.10.2 (build 2540/release)
    ВидеоИдентификатор : 0Формат : MPEG-4 VisualПрофиль формата : Advanced Simple@L5Параметр BVOP формата : 1Параметр QPel формата : НетПараметр GMC формата : Без точки переходаПараметр матрицы формата : Default (MPEG)Идентификатор кодека : XVIDИдентификатор кодека/Подсказка : XviDПродолжительность : 1 ч. 37 м.Битрейт : 1676 Кбит/секШирина : 720 пикселейВысота : 400 пикселейСоотношение сторон : 16:9Частота кадров : 23,976 кадра/секЦветовое пространство : YUVСубдискретизация насыщенности : 4:2:0Битовая глубина : 8 битТип развёртки : ПрогрессивнаяМетод сжатия : С потерямиБит/(Пиксели*Кадры) : 0.243Размер потока : 1,14 Гбайт (79%)Библиотека кодирования : XviD 1.2.1 (UTC 2008-12-04)
    АудиоИдентификатор : 1Формат : AC-3Формат/Информация : Audio Coding 3Расширение режима : CM (complete main)Параметр Endianness формата : BigИдентификатор кодека : 2000Продолжительность : 1 ч. 37 м.Вид битрейта : ПостоянныйБитрейт : 448 Кбит/секКаналы : 6 каналовРасположение каналов : Front: L C R, Side: L R, LFEЧастота : 48,0 КГцБитовая глубина : 16 битМетод сжатия : С потерямиРазмер потока : 312 Мбайт (21%)Выравнивание : Разделение по промежуткамПродолжительность промежутка : 42 мс. (1,00 видеокадр)Время предзагрузки промежутка : 500 мс.

    Скриншоты

    Скачать .torrent

    Скачать торрент-файл бесплатно и на максимальной скорости!

    Как скачивать? · Что такое торрент? · Рейтинг и ограничения

    !ВНИМАНИЕ!
    Сайт не распространяет и не хранит электронные версии произведений, а занимается лишь лишь предоставлением доступа к создаваемому пользователями каталогу ссылок на торрент-файлы, которые содержат только списки хеш-сумм, убедительная просьба с жалобами обращаться напрямую к пользователю. Файлы для обмена на трекере предоставлены пользователями сайта, и администрация не несёт ответственности за их содержание. Просьба не заливать файлы, защищенные авторскими правами, а также файлы нелегального содержания!


    _________________
    [Профиль] [ЛС]
    Показать сообщения:    
    Ответить на тему

    Текущее время: Сегодня, в 10:10

    Часовой пояс: GMT + 2



    Вы не можете начинать темы
    Вы не можете отвечать на сообщения
    Вы не можете редактировать свои сообщения
    Вы не можете удалять свои сообщения
    Вы не можете голосовать в опросах
    Вы не можете прикреплять файлы к сообщениям
    Вы не можете скачивать файлы