BitTorrentTracker PerecTracker.org
BitTorrentTracker PerecTracker.org
    
Регистрация  ·  Вход
 
 · 
Забыли пароль?

  • Лунный переполох / Der Mondbär / Moonbeam Bear and His Friends (Майк Маурус / Mike Maurus , Томас Боденштейн / Thomas Bodenstein, Хьюберт Вейланд / Hubert Weiland ) [2008, Мультфильм, детский, семейный, приключения, полнометражный, SATRip] Dub

    Ответить на тему
     
    Автор Сообщение

    rechyn

    Создавать темы 08-Дек-2015 23:06

           

    [Цитировать]

    Лунный переполох / Der Mondbär / Moonbeam Bear and His Friends
    Страна: Германия, Caligari Film, Wunde
    Жанр: Мультфильм, детский, семейный, приключения, полнометражный
    Продолжительность: 01:06:35
    Год выпуска: 2008
    Перевод: Профессиональный (дублированный)
    Русские субтитры: нет
    Режиссёр: Майк Маурус / Mike Maurus , Томас Боденштейн / Thomas Bodenstein, Хьюберт Вейланд / Hubert Weiland (co-director)
    Описание: История о том, как звери возвращали на небо пропавший месяц. Хаос и волнение в лесу — с неба исчез месяц! Барсук, лягушка, утка и божья коровка, натыкаясь друг на друга в темноте, отправляются искать пропажу. Вдруг они видят яркий свет, который исходит из домика Медвежонка. Звери с трудом могут поверить своим глазам: Медвежонок и месяц мирно сидят за столиком и играют в шашки... Звери не знают, как поступить. Они считают, что месяц немедленно должен вернуться на небо, но как это организовать? Ко всему прочему, в уютном домике Медвежонка месяц сначала задремал, а потом крепко заснул. Теперь даже удар грома не сможет разбудить небесного гостя. Медвежонок и его друзья отправляются на поиски солнечной птицы, под радостное щебетание которой по утрам просыпается весь лес, значит, и месяц тоже проснется!
    Сэмпл: http://sendfile.su/1070250
    Качество: SATRip
    Формат: AVI
    Видео: Xvid 720x400 25fps 2 100 Kbps
    Аудио: AC3 48000Hz stereo 192kbps
    Субтитры: отсутствуют

    Подробные технические данные

    C:\Users\Dmitriy\Documents\Лунный переполох.2008.XviD.SATRip.avi General Complete name : C:\Users\Dmitriy\Documents\Лунный переполох.2008.XviD.SATRip.avi Format : AVI Format/Info : Audio Video Interleave File size : 1.07 GiB Duration : 1h 6mn Overall bit rate : 2 302 Kbps Director : SATRip by Thunder Writing application : VirtualDubMod 1.5.10.3 | www.virtualdub-fr.org || (build 2550/release) Original source form/Name : Cartoon Video #0 ID : 0 Format : MPEG-4 Visual Format profile : Advanced Simple@L5 Format settings, BVOP : Yes Format settings, QPel : No Format settings, GMC : No warppoints Format settings, Matrix : Default (H.263) Codec ID : XVID Codec ID/Hint : XviD Duration : 1h 6mn Bit rate : 2 100 Kbps Width : 720 pixels Height : 400 pixels Display aspect ratio : 16:9 Frame rate : 25.000 fps Color space : YUV Chroma subsampling : 4:2:0 Bit depth : 8 bits Scan type : Progressive Bits/(Pixel*Frame) : 0.292 Stream size : 1 000 MiB (91%) Writing library : XviD 1.2.1 (UTC 2008-12-04) Audio #1 ID : 1 Format : AC-3 Format/Info : Audio Coding 3 Mode extension : CM (complete main) Codec ID : 2000 Duration : 1h 6mn Bit rate mode : Constant Bit rate : 192 Kbps Channel(s) : 2 channels Channel positions : Front: L R Sampling rate : 48.0 KHz Bit depth : 16 bits Stream size : 91.5 MiB (8%) Alignment : Split accross interleaves Interleave, duration : 40 ms (1.00 video frame) Interleave, preload duration : 500 ms

    Скриншоты



    Скачать .torrent

    Скачать торрент-файл бесплатно и на максимальной скорости!

    Как скачивать? · Что такое торрент? · Рейтинг и ограничения

    !ВНИМАНИЕ!
    Сайт не распространяет и не хранит электронные версии произведений, а занимается лишь лишь предоставлением доступа к создаваемому пользователями каталогу ссылок на торрент-файлы, которые содержат только списки хеш-сумм, убедительная просьба с жалобами обращаться напрямую к пользователю. Файлы для обмена на трекере предоставлены пользователями сайта, и администрация не несёт ответственности за их содержание. Просьба не заливать файлы, защищенные авторскими правами, а также файлы нелегального содержания!


    _________________
    [Профиль] [ЛС]
    Показать сообщения:    
    Ответить на тему

    Текущее время: Сегодня, в 12:32

    Часовой пояс: GMT + 2



    Вы не можете начинать темы
    Вы не можете отвечать на сообщения
    Вы не можете редактировать свои сообщения
    Вы не можете удалять свои сообщения
    Вы не можете голосовать в опросах
    Вы не можете прикреплять файлы к сообщениям
    Вы не можете скачивать файлы